<?xml version="1.0" standalone="no"?>
<!DOCTYPE svg PUBLIC "-//W3C//DTD SVG 1.1//EN" "http://www.w3.org/Graphics/SVG/1.1/DTD/svg11.dtd" >
<svg xmlns="http://www.w3.org/2000/svg" xmlns:xlink="http://www.w3.org/1999/xlink" version="1.1">
<metadata></metadata>
<defs>
<font id="noto_sansbold_italic" horiz-adv-x="1128" >
<font-face units-per-em="2048" ascent="1638" descent="-410" />
<missing-glyph horiz-adv-x="532" />
<glyph unicode="&#xfb01;" horiz-adv-x="1372" d="M-219 -225q61 -20 115 -21q61 0 107 41t65 129l204 965h-163l30 145l183 84l18 84q45 203 146.5 284t265.5 81q70 0 128 -13.5t107 -35.5l-80 -224q-29 12 -60.5 21.5t-72.5 9.5q-57 0 -92 -40t-47 -105l-12 -62h219l-49 -229h-220l-215 -1010q-20 -102 -67 -186 t-128 -134.5t-208 -50.5q-104 0 -174 25v242zM801 0l237 1118h301l-237 -1118h-301zM1086 1380q0 86 48 131t134 45q59 0 104 -26.5t45 -93.5q0 -80 -44 -129.5t-136 -49.5q-63 0 -107 28t-44 95z" />
<glyph unicode="&#xfb02;" horiz-adv-x="1372" d="M-219 -225q61 -20 115 -21q61 0 107 41t65 129l204 965h-163l30 145l183 84l18 84q45 203 146.5 284t265.5 81q70 0 128 -13.5t107 -35.5l-80 -224q-29 12 -60.5 21.5t-72.5 9.5q-57 0 -92 -40t-47 -105l-12 -62h219l-49 -229h-220l-215 -1010q-20 -102 -67 -186 t-128 -134.5t-208 -50.5q-104 0 -174 25v242zM801 0l330 1556h301l-330 -1556h-301z" />
<glyph unicode="&#xfb03;" horiz-adv-x="2048" d="M-219 -225q61 -20 115 -21q61 0 107 41t65 129l204 965h-163l30 145l183 84l18 84q45 203 146.5 284t265.5 81q70 0 128 -13.5t107 -35.5l-80 -224q-29 12 -60.5 21.5t-72.5 9.5q-57 0 -92 -40t-47 -105l-12 -62h395l18 84q45 203 146.5 284t265.5 81q70 0 128 -13.5 t107 -35.5l-79 -224q-29 12 -61 21.5t-73 9.5q-57 0 -92 -40t-47 -105l-12 -62h219l-49 -229h-219l-215 -1010q-20 -102 -67.5 -186t-128.5 -134.5t-208 -50.5q-104 0 -174 25v242q61 -20 115 -21q61 0 107 41t65 129l205 965h-396l-215 -1010q-20 -102 -67 -186 t-128 -134.5t-208 -50.5q-104 0 -174 25v242zM1477 0l237 1118h301l-237 -1118h-301zM1761 1380q0 86 48.5 131t134.5 45q59 0 104 -26.5t45 -93.5q0 -80 -44 -129.5t-136 -49.5q-63 0 -107.5 28t-44.5 95z" />
<glyph unicode="&#xfb04;" horiz-adv-x="2048" d="M-219 -225q61 -20 115 -21q61 0 107 41t65 129l204 965h-163l30 145l183 84l18 84q45 203 146.5 284t265.5 81q70 0 128 -13.5t107 -35.5l-80 -224q-29 12 -60.5 21.5t-72.5 9.5q-57 0 -92 -40t-47 -105l-12 -62h395l18 84q45 203 146.5 284t265.5 81q70 0 128 -13.5 t107 -35.5l-79 -224q-29 12 -61 21.5t-73 9.5q-57 0 -92 -40t-47 -105l-12 -62h219l-49 -229h-219l-215 -1010q-20 -102 -67.5 -186t-128.5 -134.5t-208 -50.5q-104 0 -174 25v242q61 -20 115 -21q61 0 107 41t65 129l205 965h-396l-215 -1010q-20 -102 -67 -186 t-128 -134.5t-208 -50.5q-104 0 -174 25v242zM1477 0l329 1556h301l-329 -1556h-301z" />
<glyph horiz-adv-x="0" />
<glyph horiz-adv-x="682" />
<glyph horiz-adv-x="0" />
<glyph horiz-adv-x="0" />
<glyph unicode="&#xd;" horiz-adv-x="532" />
<glyph unicode=" "  horiz-adv-x="532" />
<glyph unicode="&#x09;" horiz-adv-x="532" />
<glyph unicode="&#xa0;" horiz-adv-x="532" />
<glyph unicode="!" horiz-adv-x="585" d="M25 115q0 74 46 136t158 62q68 0 109 -37.5t41 -107.5q0 -84 -54.5 -139.5t-144.5 -55.5q-86 0 -120.5 44t-34.5 98zM141 485l166 977h340l-248 -977h-258z" />
<glyph unicode="&#x22;" horiz-adv-x="927" d="M201 934l71 528h277l-152 -528h-196zM604 934l74 528h276l-151 -528h-199z" />
<glyph unicode="#" horiz-adv-x="1323" d="M41 408l18 206h277l70 232h-252l18 209h289l119 407h217l-117 -407h199l116 407h215l-116 -407h239l-18 -209h-279l-69 -232h258l-19 -206h-297l-116 -408h-220l117 408h-194l-115 -408h-215l113 408h-238zM553 614h197l69 232h-196z" />
<glyph unicode="$" d="M51 168v266q78 -43 181.5 -77.5t222.5 -39.5l71 322q-88 35 -160.5 82t-115.5 115.5t-43 167.5q0 123 61.5 208.5t169 135t246.5 57.5l35 151h139l-33 -151q84 -10 154 -30.5t141 -59.5l-106 -232q-57 29 -120 49.5t-122 24.5l-63 -299q92 -35 165.5 -80t116.5 -111.5 t43 -170.5q0 -168 -115.5 -283t-377.5 -133l-39 -199h-140l44 201q-104 6 -192.5 26.5t-162.5 59.5zM502 1022q0 -78 80 -111l51 246q-51 -6 -91 -36.5t-40 -98.5zM594 322q63 10 102 45.5t39 97.5q0 47 -24.5 75.5t-59.5 43.5z" />
<glyph unicode="%" horiz-adv-x="1753" d="M115 885q0 90 21.5 193.5t69.5 195.5t129 150.5t200 58.5q137 0 211.5 -80t74.5 -238q0 -88 -21.5 -191.5t-70.5 -196.5t-130 -152.5t-202 -59.5q-137 0 -209.5 84t-72.5 236zM231 0l1088 1462h235l-1083 -1462h-240zM360 868q1 -96 56 -96q37 0 66.5 40t50 101.5 t31.5 132t11 132.5q0 96 -57 96q-33 0 -62.5 -37t-50 -98.5t-33 -132t-12.5 -138.5zM973 283q0 109 22.5 217t72.5 198t130 145.5t195 55.5q137 0 211.5 -79t74.5 -230q0 -92 -21.5 -197.5t-70.5 -199t-128.5 -152.5t-196.5 -59q-143 0 -216 78.5t-73 222.5zM1219 285 q0 -97 55 -97q37 0 66.5 40t50 101.5t32 132t11.5 132.5q0 96 -58 96q-33 0 -62.5 -37t-50 -98t-32.5 -132t-12 -138z" />
<glyph unicode="&#x26;" horiz-adv-x="1449" d="M68 358q0 154 86 257.5t266 191.5q-76 127 -76 258q0 139 57.5 232.5t155.5 140.5t221 47q129 0 209 -43t117 -112.5t37 -151.5q0 -152 -97.5 -254.5t-267.5 -171.5l195 -263q57 72 92 142.5t67 152.5h300q-61 -145 -136 -270t-174 -227l205 -287h-350l-72 98 q-80 -53 -177 -85.5t-226 -32.5q-207 0 -319.5 98t-112.5 280zM383 387q0 -59 43 -105t119 -46q66 0 121 17t100 42l-225 328q-72 -41 -115 -93.5t-43 -142.5zM621 1085q0 -45 12.5 -90.5t28.5 -74.5q82 41 140 93t58 130q0 57 -29.5 82.5t-70.5 25.5q-70 0 -104.5 -49 t-34.5 -117z" />
<glyph unicode="'" horiz-adv-x="522" d="M201 934l71 528h277l-152 -528h-196z" />
<glyph unicode="(" horiz-adv-x="694" d="M74 281q0 354 129 640.5t375 540.5h262q-145 -158 -258 -341t-177.5 -395t-64.5 -456q0 -156 30.5 -307t86.5 -287h-234q-76 133 -112.5 287t-36.5 318z" />
<glyph unicode=")" horiz-adv-x="694" d="M-147 -324q145 160 257.5 342.5t177 394.5t64.5 455q0 158 -30.5 308.5t-85.5 285.5h233q76 -131 112.5 -285.5t36.5 -318.5q0 -354 -129 -641t-374 -541h-262z" />
<glyph unicode="*" horiz-adv-x="1116" d="M172 1141l86 237l338 -174l33 369l256 -51l-113 -353l387 29l-18 -254l-338 43l160 -336l-246 -73l-90 337l-197 -278l-207 164l275 248z" />
<glyph unicode="+" horiz-adv-x="1171" d="M109 612v219h387v390h219v-390h387v-219h-387v-385h-219v385h-387z" />
<glyph unicode="," horiz-adv-x="583" d="M-102 -264q53 121 104 258t90 244h285l8 -23q-49 -109 -119.5 -238t-142.5 -241h-225z" />
<glyph unicode="-" horiz-adv-x="659" d="M41 424l53 250h524l-53 -250h-524z" />
<glyph unicode="." horiz-adv-x="583" d="M25 115q0 74 46 136t158 62q68 0 109 -37.5t41 -107.5q0 -84 -54.5 -139.5t-144.5 -55.5q-86 0 -120.5 44t-34.5 98z" />
<glyph unicode="/" horiz-adv-x="862" d="M-90 0l809 1462h295l-809 -1462h-295z" />
<glyph unicode="0" d="M66 467q0 201 40.5 384t122.5 325.5t203 225.5t279 83q188 0 293.5 -112.5t105.5 -360.5q0 -195 -37 -379t-113.5 -331.5t-198.5 -234.5t-292 -87q-207 0 -305 126.5t-98 360.5zM369 461q0 -113 27.5 -172.5t97.5 -59.5q57 0 106 50.5t88 135.5t64.5 188.5t40 213 t14.5 205.5q0 111 -31 162t-92 51t-111.5 -55.5t-88.5 -144.5t-63.5 -192.5t-38.5 -204.5t-13 -177z" />
<glyph unicode="1" d="M182 1114l566 348h249l-309 -1462h-305l180 829q10 53 32.5 137.5t43.5 149.5q-18 -14 -57 -44t-72 -50l-195 -123z" />
<glyph unicode="2" d="M-49 0l43 213l477 424q119 106 188.5 182t99 136.5t29.5 115.5q0 76 -40.5 115t-110.5 39q-74 0 -143.5 -37t-163.5 -115l-146 203q102 88 224 147.5t278 59.5q143 0 234.5 -51.5t134.5 -132t43 -173.5q0 -129 -56.5 -235.5t-152.5 -201.5t-221 -197l-269 -222v-10h568 l-54 -260h-962z" />
<glyph unicode="3" d="M14 59v267q84 -49 182.5 -75t190.5 -26q145 0 236.5 59.5t91.5 180.5q0 74 -54.5 123t-203.5 49h-138l46 221h73q88 0 170 22.5t135.5 74t53.5 137.5q0 59 -39 100t-125 41q-90 0 -162 -33t-125 -67l-127 204q98 66 208 106t271 40q203 0 304.5 -95.5t101.5 -238.5 q0 -152 -92 -257.5t-264 -135.5v-8q111 -20 188.5 -94t77.5 -214q0 -115 -63.5 -221t-199 -172.5t-350.5 -66.5q-113 0 -213 20t-174 59z" />
<glyph unicode="4" d="M-25 303l48 234l770 925h311l-195 -919h170l-51 -240h-170l-63 -303h-293l63 303h-590zM305 543h311l58 248q12 53 27.5 114.5t31 113.5t23.5 77h-11q-23 -39 -57.5 -88.5t-69.5 -92.5z" />
<glyph unicode="5" d="M27 61v269q74 -41 164 -70t188 -29q123 0 194.5 40t102.5 100.5t31 124.5q0 78 -48.5 133t-175.5 55q-61 0 -118.5 -11t-94.5 -22l-104 78l207 733h755l-55 -262h-489l-88 -293q25 4 56.5 9.5t70.5 5.5q111 0 200.5 -42t142 -128t52.5 -220q0 -152 -64.5 -277.5 t-198.5 -200t-347 -74.5q-119 0 -218.5 23.5t-162.5 57.5z" />
<glyph unicode="6" d="M88 469q0 160 39 316.5t111.5 291.5t173.5 228q100 90 225 135t293 45q63 0 123.5 -8.5t99.5 -18.5l-51 -246q-37 10 -89 17.5t-102 7.5q-205 0 -323.5 -113.5t-179.5 -339.5h8q51 72 126.5 119t184.5 47q152 0 240 -94t88 -276q0 -86 -25.5 -189.5t-87 -197t-165 -153.5 t-261.5 -60q-211 0 -319.5 126.5t-108.5 362.5zM383 422q0 -84 38.5 -139.5t108.5 -55.5q76 0 125.5 49.5t74 125t24.5 155.5q0 72 -34 114t-102 42q-57 0 -106 -31t-81 -76t-40 -92q-4 -23 -6 -46.5t-2 -45.5z" />
<glyph unicode="7" d="M78 0l737 1202h-629l56 260h975l-41 -194l-752 -1268h-346z" />
<glyph unicode="8" d="M55 350q0 158 90.5 261.5t257.5 164.5q-61 47 -113 122t-52 177q0 113 55 206t162.5 148.5t265.5 55.5q137 0 226 -46t134 -122t45 -166q0 -106 -44 -181t-114.5 -125t-152.5 -79q53 -35 103.5 -84t82 -117.5t31.5 -163.5q0 -106 -55 -203.5t-170 -157.5t-293 -60 q-229 0 -344 106.5t-115 263.5zM352 383q0 -80 50.5 -128t134.5 -48q104 0 153 59.5t49 132.5q0 84 -44 141.5t-113 102.5q-115 -45 -172.5 -107.5t-57.5 -152.5zM528 1094q0 -72 34 -121t89 -80q86 35 135.5 88t49.5 133q0 68 -39 107t-103 39q-80 0 -123 -48.5t-43 -117.5 z" />
<glyph unicode="9" d="M86 12v256q39 -14 99.5 -27.5t127.5 -13.5q111 0 189 38t129 101.5t84 143.5t53 162h-8q-49 -70 -121 -114t-174 -44q-174 0 -258 110.5t-84 278.5q0 82 25.5 181.5t87 190.5t170 150.5t272.5 59.5q188 0 301 -114t113 -370q0 -143 -31 -298.5t-92.5 -295t-155.5 -237.5 q-86 -88 -204.5 -139t-282.5 -51q-68 0 -133.5 10t-106.5 22zM424 928q0 -86 37.5 -131t105.5 -45q59 0 104.5 31.5t74 78.5t36.5 92q4 23 6.5 46.5t2.5 46.5q0 84 -35 137t-111 53q-74 0 -123 -48t-73.5 -119t-24.5 -142z" />
<glyph unicode=":" horiz-adv-x="583" d="M25 115q0 74 46 136t158 62q68 0 109 -37.5t41 -107.5q0 -84 -54.5 -139.5t-144.5 -55.5q-86 0 -120.5 44t-34.5 98zM207 940q0 74 46 136.5t159 62.5q68 0 108.5 -38t40.5 -108q0 -84 -54.5 -139t-144.5 -55q-86 0 -120.5 44t-34.5 97z" />
<glyph unicode=";" horiz-adv-x="583" d="M-102 -264q53 121 104 258t90 244h285l8 -23q-49 -109 -119.5 -238t-142.5 -241h-225zM207 940q0 74 46 136.5t159 62.5q68 0 108.5 -38t40.5 -108q0 -84 -54.5 -139t-144.5 -55q-86 0 -120.5 44t-34.5 97z" />
<glyph unicode="&#x3c;" horiz-adv-x="1171" d="M109 641v143l993 496v-240l-684 -317l684 -281v-239z" />
<glyph unicode="=" horiz-adv-x="1171" d="M109 418v219h993v-219h-993zM109 807v217h993v-217h-993z" />
<glyph unicode="&#x3e;" horiz-adv-x="1171" d="M109 203v239l684 281l-684 317v240l993 -496v-143z" />
<glyph unicode="?" horiz-adv-x="940" d="M158 115q0 74 46 136t158 62q68 0 109 -37.5t41 -107.5q0 -84 -54.5 -139.5t-144.5 -55.5q-86 0 -120.5 44t-34.5 98zM178 1358q92 51 204 88t241 37q180 0 281.5 -88t101.5 -244q0 -102 -39 -175t-107.5 -130.5t-154.5 -114.5q-59 -39 -95.5 -72.5t-57 -73.5t-34.5 -100 h-258q27 141 82 234.5t178 175.5q100 68 145.5 114t45.5 109q0 55 -31 87t-102 32q-72 0 -145 -28.5t-163 -71.5z" />
<glyph unicode="@" horiz-adv-x="1753" d="M92 500q0 233 78 412.5t212 302t307 185t364 62.5q317 0 498.5 -163.5t181.5 -458.5q0 -121 -33 -234.5t-97.5 -204t-156.5 -143.5t-209 -53q-80 0 -139.5 35.5t-77.5 111.5h-10q-43 -68 -101.5 -107.5t-154.5 -39.5q-113 0 -191 72.5t-78 236.5q0 104 36 203.5 t103.5 179.5t165 127t218.5 47q111 0 188.5 -16.5t138.5 -38.5l-106 -420q-10 -45 -18.5 -77t-8.5 -64q0 -37 16.5 -52.5t41.5 -15.5q55 0 101 40t80 105.5t52 144.5t18 159q0 203 -117.5 320.5t-365.5 117.5q-203 0 -363.5 -92t-255 -261t-94.5 -399q0 -139 51.5 -258 t164 -189.5t294.5 -70.5q127 0 230.5 22.5t210.5 63.5v-186q-96 -39 -212 -64.5t-253 -25.5q-233 0 -391 91t-238 246.5t-80 348.5zM713 526q0 -78 28.5 -108.5t65.5 -30.5q80 0 130 75t83 195l57 222q-18 4 -36.5 7t-45.5 3q-72 0 -125 -36t-87.5 -92t-52 -118.5 t-17.5 -116.5z" />
<glyph unicode="A" horiz-adv-x="1286" d="M-123 0l766 1462h373l147 -1462h-297l-24 348h-473l-172 -348h-320zM494 608h333l-26 377q-5 59 -9 121q-3 37 -2 74q0 25 1 51h-5q-20 -55 -44.5 -109.5t-55.5 -117.5z" />
<glyph unicode="B" horiz-adv-x="1269" d="M53 0l309 1462h426q209 0 336 -74.5t127 -250.5q0 -150 -84 -246t-235 -129v-8q100 -27 159.5 -97.5t59.5 -179.5q0 -166 -76 -271.5t-206 -155.5t-294 -50h-522zM412 256h180q113 0 181.5 56.5t68.5 162.5q0 78 -45 120t-138 42h-165zM545 883h149q109 0 175.5 44 t66.5 144q0 137 -170 137h-152z" />
<glyph unicode="C" horiz-adv-x="1253" d="M123 553q0 129 29.5 261t90 252t152.5 215t220 149.5t290 54.5q139 0 236.5 -25.5t193.5 -79.5l-118 -250q-70 41 -145 69t-167 28q-123 0 -212 -61.5t-146.5 -160t-85 -213t-27.5 -223.5q0 -166 68.5 -247.5t218.5 -81.5q84 0 169 22.5t169 54.5v-260q-61 -25 -164 -51 t-236 -26q-266 0 -401 155.5t-135 417.5z" />
<glyph unicode="D" horiz-adv-x="1386" d="M53 0l309 1462h396q268 0 416.5 -142t148.5 -411q0 -276 -95 -481t-278.5 -316.5t-445.5 -111.5h-451zM412 256h106q168 0 276.5 89t162 234.5t53.5 313.5q0 162 -75 238.5t-206 76.5h-115z" />
<glyph unicode="E" horiz-adv-x="1110" d="M53 0l309 1462h818l-54 -254h-512l-67 -321h477l-55 -254h-477l-80 -377h512l-54 -256h-817z" />
<glyph unicode="F" horiz-adv-x="1087" d="M53 0l309 1462h814l-54 -254h-508l-79 -377h473l-56 -253h-473l-121 -578h-305z" />
<glyph unicode="G" horiz-adv-x="1413" d="M123 549q0 186 54 355t163 299t268.5 206t370.5 76q219 0 410 -99l-115 -251q-74 41 -147.5 64.5t-161.5 23.5q-135 0 -234.5 -57.5t-165 -152.5t-98.5 -210t-33 -230q0 -162 69.5 -247.5t225.5 -85.5q51 0 89 7t81 17l66 299h-267l56 258h563l-162 -762 q-100 -33 -211.5 -56t-279.5 -23q-254 0 -397.5 145t-143.5 424z" />
<glyph unicode="H" horiz-adv-x="1433" d="M53 0l309 1462h306l-121 -573h471l121 573h305l-309 -1462h-306l134 631h-471l-134 -631h-305z" />
<glyph unicode="I" horiz-adv-x="784" d="M-59 0l36 176l187 82l201 946l-152 82l37 176h647l-37 -176l-190 -82l-201 -946l156 -82l-37 -176h-647z" />
<glyph unicode="J" horiz-adv-x="677" d="M-322 -150q35 -8 75 -14t89 -6q98 0 161 60.5t89 191.5l293 1380h305l-303 -1423q-53 -252 -179 -360.5t-343 -108.5q-63 0 -106.5 8t-80.5 19v253z" />
<glyph unicode="K" horiz-adv-x="1255" d="M53 0l309 1462h306l-154 -706l156 209l413 497h361l-594 -700l291 -762h-338l-211 592l-125 -70l-109 -522h-305z" />
<glyph unicode="L" horiz-adv-x="1060" d="M53 0l309 1462h306l-256 -1206h512l-54 -256h-817z" />
<glyph unicode="M" horiz-adv-x="1802" d="M53 0l309 1462h404l65 -1093h9l549 1093h423l-309 -1462h-280l145 692q14 70 33.5 149t39 155.5t36.5 136.5h-9l-569 -1133h-281l-61 1133h-8q-4 -43 -16.5 -118t-28 -163t-33.5 -172l-143 -680h-275z" />
<glyph unicode="N" horiz-adv-x="1546" d="M53 0l309 1462h357l340 -1077h8q8 43 18.5 111.5t23.5 142.5t26 131l147 692h274l-309 -1462h-342l-356 1106h-10q-2 -12 -8.5 -58.5t-15.5 -110t-20.5 -130t-21.5 -119.5l-145 -688h-275z" />
<glyph unicode="O" horiz-adv-x="1495" d="M123 537q0 172 46 339.5t141.5 305t241.5 220.5t345 83q266 0 400.5 -149.5t134.5 -397.5q0 -178 -45.5 -349t-138.5 -309.5t-237 -219t-345 -80.5q-266 0 -404.5 152.5t-138.5 404.5zM434 537q0 -145 67.5 -221t186.5 -76t217.5 85t156.5 240.5t58 364.5 q0 135 -62.5 216t-185.5 81q-94 0 -175 -54.5t-139 -150.5t-91 -220t-33 -265z" />
<glyph unicode="P" horiz-adv-x="1249" d="M53 0l309 1462h408q178 0 285.5 -53t156 -149.5t48.5 -223.5q0 -174 -84 -288.5t-227.5 -171t-325.5 -56.5h-156l-109 -520h-305zM522 774h125q137 0 221 67.5t84 186.5q0 180 -194 180h-144z" />
<glyph unicode="Q" horiz-adv-x="1495" d="M123 537q0 172 46 339.5t141.5 305t241.5 220.5t345 83q266 0 400.5 -149.5t134.5 -397.5q0 -188 -49.5 -365.5t-151 -315.5t-256.5 -212l254 -393h-359l-178 328h-26q-266 0 -404.5 152.5t-138.5 404.5zM434 537q0 -145 67.5 -221t186.5 -76t217.5 85t156.5 240.5 t58 364.5q0 135 -62.5 216t-185.5 81q-94 0 -175 -54.5t-139 -150.5t-91 -220t-33 -265z" />
<glyph unicode="R" horiz-adv-x="1247" d="M53 0l309 1462h359q219 0 347 -94t128 -307q0 -174 -91 -283.5t-231 -156.5l261 -621h-332l-207 561h-119l-119 -561h-305zM530 813h78q131 0 204 57.5t73 173.5q0 164 -197 164h-74z" />
<glyph unicode="S" horiz-adv-x="1085" d="M41 70v274q90 -51 178 -79.5t180 -28.5q102 0 170 38.5t68 120.5q0 84 -49 132t-127 106q-61 45 -118.5 100t-94.5 130t-37 175q0 131 61.5 230.5t175 157t265.5 57.5q115 0 211 -24.5t186 -74.5l-109 -233q-156 74 -288 74q-82 0 -135.5 -44t-53.5 -120q0 -78 47 -124 t134 -103q121 -80 181 -176.5t60 -225.5q0 -154 -74.5 -254t-198.5 -149t-276 -49q-111 0 -202 24.5t-154 65.5z" />
<glyph unicode="T" horiz-adv-x="1087" d="M168 1204l55 258h1010l-55 -258h-353l-254 -1204h-305l254 1204h-352z" />
<glyph unicode="U" horiz-adv-x="1415" d="M141 391q0 33 3 73t12 75l196 923h305l-194 -919q-16 -76 -17 -125q0 -178 189 -178q133 0 199.5 76.5t99.5 228.5l194 917h306l-201 -946q-33 -156 -106.5 -276.5t-201.5 -190t-321 -69.5q-227 0 -345 112.5t-118 298.5z" />
<glyph unicode="V" horiz-adv-x="1208" d="M184 1462h295l51 -880q3 -50 3 -112v-32q-1 -80 -5 -139h9q23 68 50 140.5t60 142.5l430 880h316l-748 -1462h-334z" />
<glyph unicode="W" horiz-adv-x="1830" d="M184 1462h287l6 -798q0 -76 -3 -171.5t-11 -175.5h8q29 80 63.5 171.5t61.5 154.5l369 819h270l20 -819q1 -23 1 -56v-34q-1 -55 -3 -117.5t-6 -118.5h8q29 84 65 181.5t64 167.5l330 796h309l-647 -1462h-346l-16 666q-2 90 -3 148t-1 105.5t2 98.5h-8 q-53 -164 -113 -299l-324 -719h-338z" />
<glyph unicode="X" horiz-adv-x="1241" d="M-117 0l576 764l-238 698h320l153 -518l363 518h344l-545 -725l268 -737h-331l-172 543l-396 -543h-342z" />
<glyph unicode="Y" horiz-adv-x="1155" d="M186 1462h312l129 -592l374 592h342l-618 -903l-119 -559h-303l119 559z" />
<glyph unicode="Z" horiz-adv-x="1097" d="M-61 0l38 201l777 1005h-543l53 256h936l-41 -202l-782 -1004h596l-53 -256h-981z" />
<glyph unicode="[" horiz-adv-x="677" d="M-37 -324l381 1786h473l-45 -211h-215l-291 -1364h215l-45 -211h-473z" />
<glyph unicode="\" horiz-adv-x="862" d="M221 1462h260l224 -1462h-267z" />
<glyph unicode="]" horiz-adv-x="677" d="M-137 -324l45 211h213l291 1364h-215l45 211h473l-381 -1786h-471z" />
<glyph unicode="^" d="M35 520l618 950h148l276 -950h-223l-174 633l-401 -633h-244z" />
<glyph unicode="_" horiz-adv-x="819" d="M-186 -324l30 140h822l-31 -140h-821z" />
<glyph unicode="`" horiz-adv-x="659" d="M297 1548v21h311q16 -70 46 -149t69 -154v-25h-184q-41 41 -88.5 95.5t-88 109.5t-65.5 102z" />
<glyph unicode="a" horiz-adv-x="1216" d="M90 385q0 137 37 270t104.5 243t162.5 175.5t214 65.5q106 0 173 -45t104 -119h8l57 143h232l-238 -1118h-225l14 145h-8q-59 -74 -136 -119.5t-183 -45.5q-80 0 -153 39.5t-118 129t-45 236.5zM395 399q0 -176 129 -176q61 0 114.5 49.5t91.5 127t54 163.5q14 74 15 168 q0 72 -37 118t-103 46q-55 0 -103 -44t-84 -115.5t-56.5 -160t-20.5 -176.5z" />
<glyph unicode="b" horiz-adv-x="1218" d="M37 0l330 1556h301l-62 -288q-8 -41 -22.5 -95.5t-30.5 -108.5t-31 -95h8q53 68 117 119t166 51q82 0 153.5 -40t116.5 -129t45 -237q0 -137 -36.5 -270t-104 -242.5t-163 -175t-214.5 -65.5q-106 0 -172.5 45t-103.5 118h-8l-58 -143h-231zM420 399q0 -80 38 -128 t101 -48q55 0 103.5 44t84 116t56 160t20.5 176q0 176 -131 176q-74 0 -125 -53.5t-83.5 -134t-48 -164.5t-15.5 -144z" />
<glyph unicode="c" horiz-adv-x="989" d="M90 391q0 152 39 286t114.5 238.5t186.5 164t252 59.5q100 0 179 -18.5t149 -53.5l-92 -229q-53 23 -105.5 40t-118.5 17q-94 0 -161.5 -70.5t-102.5 -180t-35 -228.5q0 -94 45 -143.5t127 -49.5q76 0 140.5 23.5t134.5 58.5v-246q-70 -37 -151 -58t-185 -21 q-115 0 -210 41.5t-150.5 132t-55.5 237.5z" />
<glyph unicode="d" horiz-adv-x="1216" d="M90 387q0 135 37 269.5t104.5 243t162.5 174t214 65.5q100 0 157.5 -47.5t96.5 -116.5h8q0 6 3.5 44t9.5 88t14 91l76 358h301l-330 -1556h-229l18 145h-8q-59 -74 -134.5 -119.5t-184.5 -45.5q-80 0 -153 39.5t-118 129t-45 238.5zM395 399q0 -176 137 -176 q72 0 122.5 54.5t82 135.5t47 163.5t15.5 142.5q0 80 -37 128t-103 48q-55 0 -103 -44t-84 -115.5t-56.5 -160t-20.5 -176.5z" />
<glyph unicode="e" horiz-adv-x="1140" d="M90 412q0 141 40 271t119 232.5t195.5 163t270.5 60.5q188 0 281.5 -86t93.5 -219q0 -176 -159 -283t-485 -107h-51q-2 -12 -2 -21v-20q0 -90 52.5 -143t146.5 -53q88 0 159.5 20.5t170.5 65.5v-227q-88 -43 -178.5 -64.5t-211.5 -21.5q-197 0 -319.5 107.5t-122.5 324.5 zM428 647h45q174 0 251 54.5t77 125.5q0 94 -105 95q-55 0 -110.5 -35t-97.5 -96.5t-60 -143.5z" />
<glyph unicode="f" horiz-adv-x="763" d="M-219 -225q61 -20 115 -21q61 0 107 41t65 129l204 965h-163l30 145l183 84l18 84q45 203 146.5 284t265.5 81q70 0 128 -13.5t107 -35.5l-80 -224q-29 12 -60.5 21.5t-72.5 9.5q-57 0 -92 -40t-47 -105l-12 -62h219l-49 -229h-220l-215 -1010q-20 -102 -67 -186 t-128 -134.5t-208 -50.5q-104 0 -174 25v242z" />
<glyph unicode="g" horiz-adv-x="1216" d="M27 -158q78 -41 165 -63.5t183 -22.5q104 0 170.5 48.5t93.5 150.5l8 31q10 37 25.5 85t23.5 79h-8q-53 -70 -122.5 -120t-174.5 -50q-80 0 -148.5 43t-110.5 132t-42 230q0 137 37 270t104.5 243t161.5 175.5t209 65.5q109 0 171.5 -44t111.5 -120h8l57 143h232 l-244 -1145q-37 -176 -113.5 -277.5t-185.5 -144.5t-248 -43q-125 0 -207 19.5t-157 52.5v262zM395 399q0 -88 38 -132t104 -44q63 0 111 48t82 124t51.5 162t17.5 162q0 80 -37 128t-100 48q-57 0 -105.5 -44t-84.5 -115.5t-56.5 -160t-20.5 -176.5z" />
<glyph unicode="h" horiz-adv-x="1236" d="M37 0l330 1556h301l-58 -270q-8 -45 -24.5 -104.5t-32.5 -115.5t-31 -97h8q61 78 137 124t177 46q145 0 217 -87t72 -235q0 -74 -23 -180l-133 -637h-301l137 653q16 72 16 119q0 123 -108 123q-68 0 -123 -58.5t-95 -156.5t-67 -217l-98 -463h-301z" />
<glyph unicode="i" horiz-adv-x="608" d="M37 0l237 1118h301l-237 -1118h-301zM322 1380q0 86 48 131t134 45q59 0 104 -26.5t45 -93.5q0 -80 -44 -129.5t-136 -49.5q-63 0 -107 28t-44 95z" />
<glyph unicode="j" horiz-adv-x="608" d="M-264 -225q61 -20 114 -21q61 0 107.5 41t65.5 129l253 1194h302l-265 -1239q-20 -102 -67 -186t-128 -134.5t-208 -50.5q-104 0 -174 25v242zM324 1380q0 86 48 131t134 45q59 0 104 -26.5t45 -93.5q0 -80 -44 -129.5t-136 -49.5q-63 0 -107 28t-44 95z" />
<glyph unicode="k" horiz-adv-x="1163" d="M37 0l330 1556h301l-148 -694q-10 -51 -30.5 -117.5t-30.5 -101.5h8l453 475h344l-498 -504l285 -614h-336l-183 420l-120 -72l-74 -348h-301z" />
<glyph unicode="l" horiz-adv-x="608" d="M37 0l330 1556h301l-330 -1556h-301z" />
<glyph unicode="m" horiz-adv-x="1853" d="M37 0l237 1118h230l-21 -207h9q66 100 150.5 164t201.5 64q115 0 178 -60.5t84 -167.5h8q63 100 151.5 164t204.5 64q139 0 209 -87t70 -235q0 -74 -23 -180l-133 -637h-301l138 653q16 72 16 119q0 123 -98 123q-68 0 -123.5 -57.5t-96.5 -154.5t-65 -218l-96 -465h-301 l137 653q16 72 16 119q0 123 -98 123q-68 0 -123 -58.5t-95 -156.5t-67 -217l-98 -463h-301z" />
<glyph unicode="n" horiz-adv-x="1236" d="M37 0l237 1118h230l-21 -207h9q66 100 150.5 164t201.5 64q145 0 217 -87t72 -235q0 -74 -23 -180l-133 -637h-301l137 653q16 72 16 119q0 123 -108 123q-68 0 -123 -58.5t-95 -156.5t-67 -217l-98 -463h-301z" />
<glyph unicode="o" horiz-adv-x="1198" d="M90 410q0 147 37 279t110.5 233.5t185.5 159t261 57.5q195 0 309.5 -117t114.5 -326q0 -141 -35 -270t-107.5 -229.5t-184 -158.5t-263.5 -58q-125 0 -222 52t-151.5 148t-54.5 230zM393 410q0 -185 150 -185q84 0 142 67.5t89 175t31 228.5q0 84 -32 140.5t-111 56.5 q-68 0 -119 -46t-84 -120t-49.5 -158t-16.5 -159z" />
<glyph unicode="p" horiz-adv-x="1218" d="M-68 -492l342 1610h230l-17 -170h9q53 72 131 131.5t186 59.5q82 0 153.5 -40t116.5 -129t45 -239q0 -135 -36.5 -269t-104 -242.5t-163 -174t-214.5 -65.5q-102 0 -157.5 47t-96.5 116h-8q-6 -82 -16 -149.5t-27 -145.5l-72 -340h-301zM420 399q0 -80 38 -128t101 -48 q55 0 103.5 44t84 116t56 160t20.5 176q0 176 -131 176q-74 0 -125 -53.5t-83.5 -133t-48 -163.5t-15.5 -146z" />
<glyph unicode="q" horiz-adv-x="1216" d="M90 385q0 137 37 270t104.5 243t162.5 175.5t214 65.5q100 0 164 -43t113 -121h8l57 143h232l-342 -1610h-301l73 338q8 37 22.5 91.5t32 111.5t29.5 101h-8q-53 -70 -122.5 -120t-174.5 -50q-74 0 -142.5 39.5t-113.5 129t-45 236.5zM395 399q0 -88 37 -132t103 -44 q72 0 122 54.5t80.5 135.5t46 163.5t15.5 142.5q0 80 -37 128t-103 48q-55 0 -103 -44t-84 -115.5t-56.5 -160t-20.5 -176.5z" />
<glyph unicode="r" horiz-adv-x="862" d="M37 0l237 1118h230l-21 -207h11q68 106 153.5 167t194.5 61q25 0 52.5 -3t43.5 -8l-66 -290q-16 6 -42.5 11t-57.5 5q-113 0 -202 -89t-126 -265l-106 -500h-301z" />
<glyph unicode="s" horiz-adv-x="968" d="M23 45v248q76 -43 155.5 -66.5t163.5 -23.5q72 0 127 29.5t55 91.5q0 41 -32.5 73.5t-135.5 89.5q-104 59 -160.5 124t-56.5 171q0 174 114 265.5t312 91.5q96 0 186.5 -21.5t176.5 -73.5l-99 -215q-59 35 -125.5 59.5t-132.5 24.5q-49 0 -88 -23.5t-39 -70.5 q0 -39 33 -68.5t119 -74.5q102 -51 167.5 -122t65.5 -185q0 -193 -128 -291t-343 -98q-106 0 -186 15t-149 50z" />
<glyph unicode="t" horiz-adv-x="839" d="M94 889l29 147l196 84l132 236h194l-49 -238h283l-50 -229h-282l-115 -539q-6 -31 -6 -53q0 -39 24.5 -56.5t63.5 -17.5q41 0 79 9.5t83 25.5v-225q-47 -23 -114.5 -38t-151.5 -15q-131 0 -211 56t-80 202q0 51 12 112l115 539h-152z" />
<glyph unicode="u" horiz-adv-x="1236" d="M111 301q0 37 6 95.5t18 117.5l127 604h301l-137 -653q-16 -72 -16 -119q0 -123 108 -123q70 0 124 58.5t95 157t66 216.5l98 463h301l-237 -1118h-230l21 207h-11q-63 -100 -148 -163.5t-202 -63.5q-143 0 -213.5 87t-70.5 234z" />
<glyph unicode="v" horiz-adv-x="1048" d="M102 1118h295l45 -586q4 -39 5.5 -107.5t1.5 -123.5h10q18 51 42.5 117.5t45.5 105.5l297 594h323l-604 -1118h-323z" />
<glyph unicode="w" horiz-adv-x="1613" d="M125 1118h281l4 -495q0 -82 -1 -163t-10 -175h9q14 51 36.5 113.5t42 113.5t27.5 70l231 536h328v-536q0 -70 -1 -141.5t-9 -155.5h10q14 47 35.5 110.5t44.5 126t39 101.5l219 495h307l-530 -1118h-330l-6 520q0 43 1 103.5t4 124t5 112.5h-12q-16 -49 -37.5 -109.5 t-42 -115.5t-37.5 -94l-233 -541h-324z" />
<glyph unicode="x" horiz-adv-x="1087" d="M-100 0l479 573l-225 545h321l115 -334l244 334h354l-467 -561l244 -557h-326l-125 342l-264 -342h-350z" />
<glyph unicode="y" horiz-adv-x="1062" d="M-141 -233q27 -4 54.5 -8.5t61.5 -4.5q96 0 158 55.5t107 141.5l26 49l-164 1118h295l56 -518q8 -70 10 -151.5t2 -141.5h8q20 51 45 120t64 153l260 538h327l-680 -1278q-90 -170 -211.5 -251t-271.5 -81q-53 0 -88 5.5t-59 13.5v240z" />
<glyph unicode="z" horiz-adv-x="931" d="M-47 0l35 180l575 705h-397l51 233h750l-43 -200l-566 -685h439l-49 -233h-795z" />
<glyph unicode="{" horiz-adv-x="727" d="M-8 459l45 229q121 0 192.5 42t92.5 138l61 285q35 154 122 231.5t279 77.5h84l-49 -225q-76 -2 -122 -28.5t-64 -112.5l-66 -297q-25 -111 -95.5 -166t-180.5 -70v-8q84 -27 126 -83t42 -134q0 -27 -4 -53.5t-11 -59.5l-36 -178q-6 -31 -7 -51q0 -53 34 -73.5t91 -20.5 v-226h-53q-184 0 -262 70t-78 178q0 35 4 65.5t10 59.5l39 184q4 23 9.5 45.5t5.5 40.5q0 139 -209 140z" />
<glyph unicode="|" d="M455 -465v2015h219v-2015h-219z" />
<glyph unicode="}" horiz-adv-x="727" d="M-100 -98q76 2 127 28.5t69 112.5l66 297q25 111 95.5 166t180.5 69v9q-84 27 -126 83t-42 134q0 27 4.5 53.5t10.5 58.5l37 179q6 31 6 51q0 53 -37 73.5t-109 20.5l41 225h33q184 0 262 -69.5t78 -178.5q0 -33 -4 -64.5t-10 -59.5l-39 -185q-4 -23 -9.5 -45t-5.5 -41 q0 -139 209 -139l-45 -229q-121 0 -191.5 -42t-92.5 -139l-62 -284q-33 -154 -120 -232t-281 -78h-45v226z" />
<glyph unicode="~" horiz-adv-x="1171" d="M109 551v231q102 109 256 109q59 0 119.5 -11.5t156.5 -52.5q76 -33 129 -44t98 -11q59 0 121 35t113 86v-231q-102 -109 -256 -109q-59 0 -120 12t-157 51q-76 33 -128 44.5t-99 11.5q-57 0 -119.5 -35t-113.5 -86z" />
<glyph unicode="&#xa1;" horiz-adv-x="585" d="M-74 -371l256 977h242l-158 -977h-340zM195 924q0 84 54 139t144 55q86 0 121 -44t35 -97q0 -74 -46 -136.5t-159 -62.5q-68 0 -108.5 38t-40.5 108z" />
<glyph unicode="&#xa2;" d="M164 584q0 186 59.5 346t173 266.5t275.5 128.5l33 158h188l-35 -158q66 -8 120 -24.5t105 -40.5l-92 -230q-53 23 -105 40t-118 17q-94 0 -161.5 -70.5t-102.5 -180t-35 -228.5q0 -94 45 -143t127 -49q76 0 140.5 23.5t133.5 58.5v-246q-63 -33 -135.5 -54.5 t-163.5 -25.5l-41 -192h-188l49 210q-119 33 -195.5 126.5t-76.5 267.5z" />
<glyph unicode="&#xa3;" d="M-12 0l49 246q90 23 153.5 84t90.5 180l22 104h-192l45 220h192l49 247q41 195 160 299.5t315 104.5q109 0 204 -25.5t165 -60.5l-113 -232q-59 29 -120.5 48.5t-116.5 19.5q-76 0 -123 -40t-68 -132l-47 -229h299l-45 -220h-299l-18 -84q-20 -100 -75.5 -167.5 t-133.5 -102.5h655l-55 -260h-993z" />
<glyph unicode="&#xa4;" d="M115 1047l147 147l127 -127q43 25 94.5 39t102.5 14q104 0 196 -55l127 129l150 -143l-129 -129q25 -41 39 -93.5t14 -105.5q0 -109 -53 -199l125 -125l-146 -145l-127 125q-43 -23 -93 -37t-103 -14q-115 0 -199 51l-125 -123l-145 145l127 125q-53 90 -54 197 q0 53 14.5 103.5t39.5 93.5zM397 723q0 -78 55.5 -133t133.5 -55q80 0 136 55t56 133q0 80 -56 135t-136 55q-78 0 -133.5 -55t-55.5 -135z" />
<glyph unicode="&#xa5;" d="M88 221l37 178h252l29 138h-252l39 178h196l-192 747h297l114 -590l371 590h311l-506 -747h203l-39 -178h-252l-28 -138h252l-37 -178h-252l-47 -221h-291l47 221h-252z" />
<glyph unicode="&#xa6;" d="M455 350h219v-815h-219v815zM455 735v815h219v-815h-219z" />
<glyph unicode="&#xa7;" horiz-adv-x="995" d="M20 55v224q72 -43 160 -74t185 -31q98 0 144 35t46 92q0 41 -35 75t-125 77q-117 57 -181 129.5t-64 173.5q0 100 55 171.5t147 129.5q-41 35 -69.5 85t-28.5 107q0 102 55.5 173t152.5 108t222 37q100 0 183 -23.5t161 -64.5l-82 -193q-55 33 -124.5 58.5t-157.5 25.5 q-63 0 -103.5 -24.5t-40.5 -81.5q0 -41 41 -74t127 -72q242 -106 242 -299q0 -113 -59.5 -183.5t-133.5 -115.5q39 -35 64.5 -85t25.5 -109q0 -111 -60 -189t-166 -117.5t-245 -39.5q-111 0 -193.5 21.5t-142.5 53.5zM393 793q0 -51 42.5 -92.5t144.5 -88.5q39 25 70.5 68 t31.5 102q0 55 -46 99.5t-130 76.5q-51 -25 -82 -68.5t-31 -96.5z" />
<glyph unicode="&#xa8;" horiz-adv-x="1134" d="M416 1382q0 78 40 118t111 40q51 0 88 -23.5t37 -84.5q0 -72 -35.5 -116t-113.5 -44q-55 0 -91 24.5t-36 85.5zM799 1382q0 78 40 118t111 40q51 0 88 -23.5t37 -84.5q0 -72 -35.5 -116t-113.5 -44q-55 0 -91 24.5t-36 85.5z" />
<glyph unicode="&#xa9;" horiz-adv-x="1703" d="M100 731q0 156 56.5 292t159 239.5t239.5 162t297 58.5q156 0 292 -55.5t239.5 -157t162 -238.5t58.5 -301t-55.5 -301t-157 -238.5t-238.5 -156.5t-301 -55t-301 55t-238.5 156.5t-157 238.5t-55.5 301zM240 731q0 -180 78.5 -320.5t217 -220t316.5 -79.5 q168 0 306 79.5t220 220t82 320.5q0 129 -46 241.5t-128 198.5t-193.5 134.5t-240.5 48.5q-174 0 -313.5 -80t-219 -220.5t-79.5 -322.5zM467 731q0 137 49 242.5t143.5 166t231.5 60.5q133 0 252 -61l-60 -138q-102 53 -190 54q-121 0 -187.5 -86t-66.5 -238 q0 -156 58.5 -240.5t193.5 -84.5q47 0 105.5 13t109.5 34v-142q-49 -20 -100 -34.5t-123 -14.5q-209 0 -312.5 129t-103.5 340z" />
<glyph unicode="&#xaa;" horiz-adv-x="772" d="M152 1016q0 68 19 146.5t60 149t108 117t159 46.5q66 0 107.5 -27t70.5 -76h8l39 90h154l-158 -702h-148l9 92h-9q-37 -47 -85.5 -75.5t-116.5 -28.5q-55 0 -105.5 25.5t-81 85t-30.5 157.5zM356 1010q0 -111 86 -111q45 0 79 34t55.5 85t31.5 104.5t10 91.5q0 47 -20 77 t-68 30q-53 0 -92 -48t-60.5 -120t-21.5 -143z" />
<glyph unicode="&#xab;" horiz-adv-x="1150" d="M72 551v18l401 463l191 -155l-279 -334l135 -350l-246 -103zM559 551v18l402 463l190 -155l-279 -334l136 -350l-246 -103z" />
<glyph unicode="&#xac;" horiz-adv-x="1171" d="M109 612v219h993v-583h-219v364h-774z" />
<glyph unicode="&#xad;" horiz-adv-x="659" d="M41 424l53 250h524l-53 -250h-524z" />
<glyph unicode="&#xae;" horiz-adv-x="1703" d="M100 731q0 156 56.5 292t159 239.5t239.5 162t297 58.5q156 0 292 -55.5t239.5 -157t162 -238.5t58.5 -301t-55.5 -301t-157 -238.5t-238.5 -156.5t-301 -55t-301 55t-238.5 156.5t-157 238.5t-55.5 301zM240 731q0 -180 78.5 -320.5t217 -220t316.5 -79.5 q168 0 306 79.5t220 220t82 320.5q0 129 -46 241.5t-128 198.5t-193.5 134.5t-240.5 48.5q-174 0 -313.5 -80t-219 -220.5t-79.5 -322.5zM561 283v905h273q168 0 245.5 -70.5t77.5 -204.5q0 -96 -49 -152t-111 -81l238 -397h-186l-195 344h-127v-344h-166zM727 764h102 q80 0 120 41t40 104q0 72 -35.5 105t-126.5 33h-100v-283z" />
<glyph unicode="&#xaf;" horiz-adv-x="1024" d="M178 1556l45 201h1037l-46 -201h-1036z" />
<glyph unicode="&#xb0;" horiz-adv-x="876" d="M80 1137q0 100 46 178t127 123t185 45q106 0 186.5 -44t125.5 -122t45 -180q0 -100 -45 -178t-125.5 -122t-186.5 -44q-104 0 -185 44t-127 121.5t-46 178.5zM283 1137q0 -70 46 -112t109 -42q66 0 111 42t45 112q0 74 -45 115.5t-111 41.5q-63 0 -109 -42t-46 -115z" />
<glyph unicode="&#xb1;" horiz-adv-x="1171" d="M109 0v219h993v-219h-993zM109 674v219h387v389h219v-389h387v-219h-387v-385h-219v385h-387z" />
<glyph unicode="&#xb2;" horiz-adv-x="776" d="M115 850l35 166l272 219q98 80 149.5 130t51.5 108q0 41 -26 61t-60 20q-86 0 -189 -81l-100 157q74 57 156.5 87t191.5 30q125 0 197.5 -63.5t72.5 -159.5q0 -84 -31.5 -144.5t-94 -114t-154.5 -120.5l-129 -94h346l-41 -201h-647z" />
<glyph unicode="&#xb3;" horiz-adv-x="776" d="M147 889v192q59 -33 122 -52t132 -19q72 0 123 29.5t51 88.5q0 37 -25.5 63t-88.5 26h-127l35 159h90q84 0 132 28t48 85q0 41 -25.5 60.5t-70.5 19.5t-93.5 -17.5t-95.5 -48.5l-82 150q72 47 148 69.5t166 22.5q104 0 165.5 -29.5t89 -78t27.5 -103.5 q0 -104 -63.5 -156.5t-153.5 -74.5v-9q84 -18 119 -63t35 -111q0 -100 -56.5 -163.5t-146.5 -93t-188 -29.5q-76 0 -146.5 15t-120.5 40z" />
<glyph unicode="&#xb4;" horiz-adv-x="659" d="M231 1241v25q51 57 113 144t109 159h335v-17q-23 -27 -64.5 -68.5t-92.5 -86.5t-101.5 -86t-89.5 -70h-209z" />
<glyph unicode="&#xb5;" horiz-adv-x="1249" d="M-68 -492l342 1610h301l-135 -645q-16 -76 -16 -125q0 -59 31.5 -92t79.5 -33q72 0 126 59.5t93 157t61 209.5l98 469h301l-237 -1118h-225l18 176h-10q-55 -94 -121 -145t-145 -51q-51 0 -89 20t-59 47h-10q-6 -47 -14.5 -107.5t-18.5 -111.5l-67 -320h-304z" />
<glyph unicode="&#xb6;" horiz-adv-x="1341" d="M147 1042q0 197 56.5 308.5t159 158.5t235.5 47h604v-1816h-162v1616h-166v-1616h-161v819q-61 -18 -146 -18q-127 0 -221 47t-146.5 157.5t-52.5 296.5z" />
<glyph unicode="&#xb7;" horiz-adv-x="583" d="M131 695q0 74 46 136t158 62q68 0 109 -37.5t41 -107.5q0 -84 -54.5 -139.5t-144.5 -55.5q-86 0 -120.5 44t-34.5 98z" />
<glyph unicode="&#xb8;" horiz-adv-x="419" d="M-207 -301q23 -8 56.5 -15.5t68.5 -7.5q102 0 102 82q0 35 -31.5 57.5t-109.5 30.5l96 154h185l-39 -72q59 -20 100 -61t41 -117q0 -102 -74.5 -172t-242.5 -70q-47 0 -88 7.5t-64 15.5v168z" />
<glyph unicode="&#xb9;" horiz-adv-x="776" d="M186 1479l400 247h207l-187 -876h-246l84 397q14 63 29.5 117.5t26.5 89.5q-18 -14 -42 -31.5t-38 -27.5l-131 -82z" />
<glyph unicode="&#xba;" horiz-adv-x="753" d="M170 1034q0 119 43 219.5t128 161t210 60.5q143 0 204.5 -81t61.5 -204q0 -66 -18.5 -142.5t-60.5 -145t-114.5 -111.5t-183.5 -43q-133 0 -201.5 75.5t-68.5 210.5zM379 1022q0 -111 80 -111q49 0 81.5 46.5t49 115t16.5 131.5q0 106 -76 107q-49 0 -82.5 -47t-51 -114 t-17.5 -128z" />
<glyph unicode="&#xbb;" horiz-adv-x="1150" d="M0 246l279 334l-136 350l246 102l203 -461v-18l-402 -463zM487 246l279 334l-135 350l246 102l202 -461v-18l-401 -463z" />
<glyph unicode="&#xbc;" horiz-adv-x="1708" d="M145 1213l400 247h207l-187 -876h-246l84 397q14 63 29.5 117.5t26.5 89.5q-18 -14 -42 -31.5t-38 -27.5l-131 -82zM220 0l1087 1462h236l-1084 -1462h-239zM870 153l31 175l475 557h260l-120 -564h118l-35 -168h-118l-33 -151h-238l33 151h-373zM1104 321h174l41 164 q10 41 17 66.5t22 75.5q-18 -27 -44 -59t-42 -52z" />
<glyph unicode="&#xbd;" horiz-adv-x="1824" d="M145 1213l400 247h207l-187 -876h-246l84 397q14 63 29.5 117.5t26.5 89.5q-18 -14 -42 -31.5t-38 -27.5l-131 -82zM216 0l1087 1462h236l-1084 -1462h-239zM987 -2l35 166l272 219q98 80 149.5 130t51.5 108q0 41 -26 61t-60 20q-86 0 -189 -81l-100 157q74 57 156.5 87 t191.5 30q125 0 197.5 -63.5t72.5 -159.5q0 -84 -31.5 -144.5t-94 -114t-154.5 -120.5l-129 -94h346l-41 -201h-647z" />
<glyph unicode="&#xbe;" horiz-adv-x="1767" d="M96 625v192q59 -33 122 -52t132 -19q72 0 123 29.5t51 88.5q0 37 -25.5 63t-88.5 26h-127l35 159h90q84 0 132 28t48 85q0 41 -25.5 60.5t-70.5 19.5t-93.5 -17.5t-95.5 -48.5l-82 150q72 47 148 69.5t166 22.5q104 0 165.5 -29.5t89 -78t27.5 -103.5 q0 -104 -63.5 -156.5t-153.5 -74.5v-9q84 -18 119 -63t35 -111q0 -100 -56.5 -163.5t-146.5 -93t-188 -29.5q-76 0 -146.5 15t-120.5 40zM279 0l1087 1462h236l-1084 -1462h-239zM929 151l31 175l475 557h260l-120 -564h118l-35 -168h-118l-33 -151h-238l33 151h-373z M1163 319h174l41 164q10 41 17 66.5t22 75.5q-18 -27 -44 -59t-42 -52z" />
<glyph unicode="&#xbf;" horiz-adv-x="940" d="M-57 -57q0 102 38.5 174.5t107.5 130t155 114.5q61 41 96 75t55.5 74t34.5 97h258q-27 -141 -82 -233t-178 -176q-100 -68 -145 -113t-45 -111q0 -55 31.5 -86.5t101.5 -31.5q72 0 145.5 28.5t161.5 71.5l92 -221q-92 -51 -203.5 -88t-240.5 -37q-180 0 -281.5 88 t-101.5 244zM436 926q0 84 54.5 139t144.5 55q86 0 121 -44t35 -97q0 -74 -46.5 -136.5t-158.5 -62.5q-68 0 -109 38t-41 108z" />
<glyph unicode="&#xc0;" horiz-adv-x="1286" d="M-123 0l766 1462h373l147 -1462h-297l-24 348h-473l-172 -348h-320zM494 608h333l-26 377q-4 59 -8.5 120.5t-1.5 125.5h-5q-20 -55 -44.5 -109.5t-55.5 -117.5zM606 1892v21h311q16 -70 46 -149t69 -154v-25h-184q-41 41 -88.5 95.5t-88 109.5t-65.5 102z" />
<glyph unicode="&#xc1;" horiz-adv-x="1286" d="M-123 0l766 1462h373l147 -1462h-297l-24 348h-473l-172 -348h-320zM494 608h333l-26 377q-4 59 -8.5 120.5t-1.5 125.5h-5q-20 -55 -44.5 -109.5t-55.5 -117.5zM696 1585v25q51 57 113 144t109 159h335v-17q-23 -27 -64.5 -68.5t-92.5 -86.5t-101.5 -86t-89.5 -70h-209z " />
<glyph unicode="&#xc2;" horiz-adv-x="1286" d="M-123 0l766 1462h373l147 -1462h-297l-24 348h-473l-172 -348h-320zM440 1585v25q41 39 96.5 92t110 109.5t88.5 101.5h338q31 -72 83 -158t93 -145v-25h-198q-35 31 -81 78t-81 90q-59 -49 -115.5 -89t-115.5 -79h-218zM494 608h333l-26 377q-4 59 -8.5 120.5 t-1.5 125.5h-5q-20 -55 -44.5 -109.5t-55.5 -117.5z" />
<glyph unicode="&#xc3;" horiz-adv-x="1286" d="M-123 0l766 1462h373l147 -1462h-297l-24 348h-473l-172 -348h-320zM465 1583q31 162 103.5 235.5t177.5 73.5q66 0 114 -26.5t87 -52t79 -25.5q63 0 105 106h172q-35 -164 -107.5 -236.5t-179.5 -72.5q-66 0 -111.5 25.5t-84.5 52.5t-84 27q-66 0 -95 -107h-176z M494 608h333l-26 377q-4 59 -8.5 120.5t-1.5 125.5h-5q-20 -55 -44.5 -109.5t-55.5 -117.5z" />
<glyph unicode="&#xc4;" horiz-adv-x="1286" d="M-123 0l766 1462h373l147 -1462h-297l-24 348h-473l-172 -348h-320zM494 608h333l-26 377q-4 59 -8.5 120.5t-1.5 125.5h-5q-20 -55 -44.5 -109.5t-55.5 -117.5zM555 1726q0 78 40 118t111 40q51 0 88 -23.5t37 -84.5q0 -72 -35.5 -116t-113.5 -44q-55 0 -91 24.5 t-36 85.5zM938 1726q0 78 40 118t111 40q51 0 88 -23.5t37 -84.5q0 -72 -35.5 -116t-113.5 -44q-55 0 -91 24.5t-36 85.5z" />
<glyph unicode="&#xc5;" horiz-adv-x="1286" d="M-123 0l766 1462h373l147 -1462h-297l-24 348h-473l-172 -348h-320zM494 608h333l-26 377q-4 59 -8.5 120.5t-1.5 125.5h-5q-20 -55 -44.5 -109.5t-55.5 -117.5zM637 1821q0 111 68.5 174t178.5 63q106 0 180 -63.5t74 -171.5q0 -113 -72.5 -176.5t-181.5 -63.5 q-111 0 -179 63.5t-68 174.5zM788 1821q0 -45 24.5 -71t71.5 -26q41 0 69 26t28 71t-28 70.5t-69 25.5t-68.5 -25.5t-27.5 -70.5z" />
<glyph unicode="&#xc6;" horiz-adv-x="1832" d="M-123 0l922 1462h1104l-54 -254h-512l-67 -321h477l-55 -254h-478l-79 -377h512l-54 -256h-817l74 348h-426l-219 -348h-328zM588 608h317l127 600h-80z" />
<glyph unicode="&#xc7;" horiz-adv-x="1253" d="M123 553q0 129 29.5 261t90 252t152.5 215t220 149.5t290 54.5q139 0 236.5 -25.5t193.5 -79.5l-118 -250q-70 41 -145 69t-167 28q-123 0 -212 -61.5t-146.5 -160t-85 -213t-27.5 -223.5q0 -166 68.5 -247.5t218.5 -81.5q84 0 169 22.5t169 54.5v-260q-61 -25 -164 -51 t-236 -26q-266 0 -401 155.5t-135 417.5zM389 -301q23 -8 56.5 -15.5t68.5 -7.5q102 0 102 82q0 35 -31.5 57.5t-109.5 30.5l96 154h185l-39 -72q59 -20 100 -61t41 -117q0 -102 -74.5 -172t-242.5 -70q-47 0 -88 7.5t-64 15.5v168z" />
<glyph unicode="&#xc8;" horiz-adv-x="1110" d="M53 0l309 1462h818l-54 -254h-512l-67 -321h477l-55 -254h-477l-80 -377h512l-54 -256h-817zM524 1892v21h311q16 -70 46 -149t69 -154v-25h-184q-41 41 -88.5 95.5t-88 109.5t-65.5 102z" />
<glyph unicode="&#xc9;" horiz-adv-x="1110" d="M53 0l309 1462h818l-54 -254h-512l-67 -321h477l-55 -254h-477l-80 -377h512l-54 -256h-817zM614 1585v25q51 57 113 144t109 159h335v-17q-23 -27 -64.5 -68.5t-92.5 -86.5t-101.5 -86t-89.5 -70h-209z" />
<glyph unicode="&#xca;" horiz-adv-x="1110" d="M53 0l309 1462h818l-54 -254h-512l-67 -321h477l-55 -254h-477l-80 -377h512l-54 -256h-817zM358 1585v25q41 39 96.5 92t110 109.5t88.5 101.5h338q31 -72 83 -158t93 -145v-25h-198q-35 31 -81 78t-81 90q-59 -49 -115.5 -89t-115.5 -79h-218z" />
<glyph unicode="&#xcb;" horiz-adv-x="1110" d="M53 0l309 1462h818l-54 -254h-512l-67 -321h477l-55 -254h-477l-80 -377h512l-54 -256h-817zM473 1726q0 78 40 118t111 40q51 0 88 -23.5t37 -84.5q0 -72 -35.5 -116t-113.5 -44q-55 0 -91 24.5t-36 85.5zM856 1726q0 78 40 118t111 40q51 0 88 -23.5t37 -84.5 q0 -72 -35.5 -116t-113.5 -44q-55 0 -91 24.5t-36 85.5z" />
<glyph unicode="&#xcc;" horiz-adv-x="784" d="M-59 0l36 176l187 82l201 946l-152 82l37 176h647l-37 -176l-190 -82l-201 -946l156 -82l-37 -176h-647zM342 1892v21h311q16 -70 46 -149t69 -154v-25h-184q-41 41 -88.5 95.5t-88 109.5t-65.5 102z" />
<glyph unicode="&#xcd;" horiz-adv-x="784" d="M-59 0l36 176l187 82l201 946l-152 82l37 176h647l-37 -176l-190 -82l-201 -946l156 -82l-37 -176h-647zM432 1585v25q51 57 113 144t109 159h335v-17q-23 -27 -64.5 -68.5t-92.5 -86.5t-101.5 -86t-89.5 -70h-209z" />
<glyph unicode="&#xce;" horiz-adv-x="784" d="M-59 0l36 176l187 82l201 946l-152 82l37 176h647l-37 -176l-190 -82l-201 -946l156 -82l-37 -176h-647zM176 1585v25q41 39 96.5 92t110 109.5t88.5 101.5h338q31 -72 83 -158t93 -145v-25h-198q-35 31 -81 78t-81 90q-59 -49 -115.5 -89t-115.5 -79h-218z" />
<glyph unicode="&#xcf;" horiz-adv-x="784" d="M-59 0l36 176l187 82l201 946l-152 82l37 176h647l-37 -176l-190 -82l-201 -946l156 -82l-37 -176h-647zM291 1726q0 78 40 118t111 40q51 0 88 -23.5t37 -84.5q0 -72 -35.5 -116t-113.5 -44q-55 0 -91 24.5t-36 85.5zM674 1726q0 78 40 118t111 40q51 0 88 -23.5 t37 -84.5q0 -72 -35.5 -116t-113.5 -44q-55 0 -91 24.5t-36 85.5z" />
<glyph unicode="&#xd0;" horiz-adv-x="1386" d="M37 596l55 254h141l129 612h396q268 0 416.5 -142t148.5 -411q0 -276 -95 -481t-278.5 -316.5t-445.5 -111.5h-451l127 596h-143zM412 256h106q168 0 276.5 89t162 234.5t53.5 313.5q0 162 -75 238.5t-206 76.5h-115l-75 -358h237l-53 -254h-240z" />
<glyph unicode="&#xd1;" horiz-adv-x="1546" d="M53 0l309 1462h357l340 -1077h8q8 43 18.5 111.5t23.5 142.5t26 131l147 692h274l-309 -1462h-342l-356 1106h-10q-2 -12 -8.5 -58.5t-15.5 -110t-20.5 -130t-21.5 -119.5l-145 -688h-275zM606 1583q31 162 103.5 235.5t177.5 73.5q66 0 114 -26.5t87 -52t79 -25.5 q63 0 105 106h172q-35 -164 -107.5 -236.5t-179.5 -72.5q-66 0 -111.5 25.5t-84.5 52.5t-84 27q-66 0 -95 -107h-176z" />
<glyph unicode="&#xd2;" horiz-adv-x="1495" d="M123 537q0 172 46 339.5t141.5 305t241.5 220.5t345 83q266 0 400.5 -149.5t134.5 -397.5q0 -178 -45.5 -349t-138.5 -309.5t-237 -219t-345 -80.5q-266 0 -404.5 152.5t-138.5 404.5zM434 537q0 -145 67.5 -221t186.5 -76t217.5 85t156.5 240.5t58 364.5 q0 135 -62.5 216t-185.5 81q-94 0 -175 -54.5t-139 -150.5t-91 -220t-33 -265zM711 1892v21h311q16 -70 46 -149t69 -154v-25h-184q-41 41 -88.5 95.5t-88 109.5t-65.5 102z" />
<glyph unicode="&#xd3;" horiz-adv-x="1495" d="M123 537q0 172 46 339.5t141.5 305t241.5 220.5t345 83q266 0 400.5 -149.5t134.5 -397.5q0 -178 -45.5 -349t-138.5 -309.5t-237 -219t-345 -80.5q-266 0 -404.5 152.5t-138.5 404.5zM434 537q0 -145 67.5 -221t186.5 -76t217.5 85t156.5 240.5t58 364.5 q0 135 -62.5 216t-185.5 81q-94 0 -175 -54.5t-139 -150.5t-91 -220t-33 -265zM800 1585v25q51 57 113 144t109 159h335v-17q-23 -27 -64.5 -68.5t-92.5 -86.5t-101.5 -86t-89.5 -70h-209z" />
<glyph unicode="&#xd4;" horiz-adv-x="1495" d="M123 537q0 172 46 339.5t141.5 305t241.5 220.5t345 83q266 0 400.5 -149.5t134.5 -397.5q0 -178 -45.5 -349t-138.5 -309.5t-237 -219t-345 -80.5q-266 0 -404.5 152.5t-138.5 404.5zM434 537q0 -145 67.5 -221t186.5 -76t217.5 85t156.5 240.5t58 364.5 q0 135 -62.5 216t-185.5 81q-94 0 -175 -54.5t-139 -150.5t-91 -220t-33 -265zM544 1585v25q41 39 96.5 92t110 109.5t88.5 101.5h338q31 -72 83 -158t93 -145v-25h-198q-35 31 -81 78t-81 90q-59 -49 -115.5 -89t-115.5 -79h-218z" />
<glyph unicode="&#xd5;" horiz-adv-x="1495" d="M123 537q0 172 46 339.5t141.5 305t241.5 220.5t345 83q266 0 400.5 -149.5t134.5 -397.5q0 -178 -45.5 -349t-138.5 -309.5t-237 -219t-345 -80.5q-266 0 -404.5 152.5t-138.5 404.5zM434 537q0 -145 67.5 -221t186.5 -76t217.5 85t156.5 240.5t58 364.5 q0 135 -62.5 216t-185.5 81q-94 0 -175 -54.5t-139 -150.5t-91 -220t-33 -265zM569 1583q31 162 103.5 235.5t177.5 73.5q66 0 114 -26.5t87 -52t79 -25.5q63 0 105 106h172q-35 -164 -107.5 -236.5t-179.5 -72.5q-66 0 -111.5 25.5t-84.5 52.5t-84 27q-66 0 -95 -107h-176z " />
<glyph unicode="&#xd6;" horiz-adv-x="1495" d="M123 537q0 172 46 339.5t141.5 305t241.5 220.5t345 83q266 0 400.5 -149.5t134.5 -397.5q0 -178 -45.5 -349t-138.5 -309.5t-237 -219t-345 -80.5q-266 0 -404.5 152.5t-138.5 404.5zM434 537q0 -145 67.5 -221t186.5 -76t217.5 85t156.5 240.5t58 364.5 q0 135 -62.5 216t-185.5 81q-94 0 -175 -54.5t-139 -150.5t-91 -220t-33 -265zM672 1726q0 78 40 118t111 40q51 0 88 -23.5t37 -84.5q0 -72 -35.5 -116t-113.5 -44q-55 0 -91 24.5t-36 85.5zM1055 1726q0 78 40 118t111 40q51 0 88 -23.5t37 -84.5q0 -72 -35.5 -116 t-113.5 -44q-55 0 -91 24.5t-36 85.5z" />
<glyph unicode="&#xd7;" horiz-adv-x="1171" d="M150 1024l151 154l301 -299l305 299l154 -150l-305 -305l301 -303l-150 -152l-305 301l-301 -299l-149 152l297 301z" />
<glyph unicode="&#xd8;" horiz-adv-x="1495" d="M100 29l121 151q-98 139 -98 357q0 172 46 339.5t141.5 305t241.5 220.5t345 83q182 0 305 -76l105 131l151 -117l-117 -145q47 -70 69 -155t22 -185q0 -178 -45.5 -349t-138.5 -309.5t-237.5 -219t-344.5 -80.5q-178 0 -304 71l-108 -137zM424 537q0 -23 3 -48.5 t5 -52.5l596 754q-29 18 -68.5 30.5t-89.5 12.5q-100 0 -183 -55.5t-141.5 -152.5t-90 -222t-31.5 -266zM539 270q59 -37 153 -37q125 0 224.5 87.5t158 244t58.5 365.5q0 16 -1.5 39.5t-3.5 40.5z" />
<glyph unicode="&#xd9;" horiz-adv-x="1415" d="M141 391q0 33 3 73t12 75l196 923h305l-194 -919q-16 -76 -17 -125q0 -178 189 -178q133 0 199.5 76.5t99.5 228.5l194 917h306l-201 -946q-33 -156 -106.5 -276.5t-201.5 -190t-321 -69.5q-227 0 -345 112.5t-118 298.5zM664 1892v21h311q16 -70 46 -149t69 -154v-25 h-184q-41 41 -88.5 95.5t-88 109.5t-65.5 102z" />
<glyph unicode="&#xda;" horiz-adv-x="1415" d="M141 391q0 33 3 73t12 75l196 923h305l-194 -919q-16 -76 -17 -125q0 -178 189 -178q133 0 199.5 76.5t99.5 228.5l194 917h306l-201 -946q-33 -156 -106.5 -276.5t-201.5 -190t-321 -69.5q-227 0 -345 112.5t-118 298.5zM753 1585v25q51 57 113 144t109 159h335v-17 q-23 -27 -64.5 -68.5t-92.5 -86.5t-101.5 -86t-89.5 -70h-209z" />
<glyph unicode="&#xdb;" horiz-adv-x="1415" d="M141 391q0 33 3 73t12 75l196 923h305l-194 -919q-16 -76 -17 -125q0 -178 189 -178q133 0 199.5 76.5t99.5 228.5l194 917h306l-201 -946q-33 -156 -106.5 -276.5t-201.5 -190t-321 -69.5q-227 0 -345 112.5t-118 298.5zM497 1585v25q41 39 96.5 92t110 109.5 t88.5 101.5h338q31 -72 83 -158t93 -145v-25h-198q-35 31 -81 78t-81 90q-59 -49 -115.5 -89t-115.5 -79h-218z" />
<glyph unicode="&#xdc;" horiz-adv-x="1415" d="M141 391q0 33 3 73t12 75l196 923h305l-194 -919q-16 -76 -17 -125q0 -178 189 -178q133 0 199.5 76.5t99.5 228.5l194 917h306l-201 -946q-33 -156 -106.5 -276.5t-201.5 -190t-321 -69.5q-227 0 -345 112.5t-118 298.5zM625 1726q0 78 40 118t111 40q51 0 88 -23.5 t37 -84.5q0 -72 -35.5 -116t-113.5 -44q-55 0 -91 24.5t-36 85.5zM1008 1726q0 78 40 118t111 40q51 0 88 -23.5t37 -84.5q0 -72 -35.5 -116t-113.5 -44q-55 0 -91 24.5t-36 85.5z" />
<glyph unicode="&#xdd;" horiz-adv-x="1155" d="M186 1462h312l129 -592l374 592h342l-618 -903l-119 -559h-303l119 559zM610 1585v25q51 57 113 144t109 159h335v-17q-23 -27 -64.5 -68.5t-92.5 -86.5t-101.5 -86t-89.5 -70h-209z" />
<glyph unicode="&#xde;" horiz-adv-x="1241" d="M53 0l309 1462h306l-50 -229h84q178 0 286 -53.5t156 -149.5t48 -223q0 -174 -84 -287.5t-227.5 -170t-325.5 -56.5h-135l-62 -293h-305zM475 547h105q137 0 221 66.5t84 185.5q0 180 -195 180h-123z" />
<glyph unicode="&#xdf;" horiz-adv-x="1349" d="M-260 -225q61 -20 115 -21q61 0 105 41t65 137l254 1207q47 219 179 323.5t388 104.5q211 0 332.5 -90.5t121.5 -239.5q0 -129 -57 -204t-170 -140q-51 -31 -85 -57.5t-34 -65.5q0 -23 21.5 -49.5t79.5 -69.5q84 -63 133 -130.5t49 -170.5q0 -160 -116.5 -265 t-344.5 -105q-186 0 -297 61v240q55 -33 122 -55.5t136 -22.5q102 0 148.5 33.5t46.5 85.5q0 43 -29 77.5t-106 94.5q-78 59 -121 118.5t-43 137.5q0 102 57.5 161.5t149.5 110.5q66 37 104.5 76t38.5 96q0 61 -40 98t-124 37q-82 0 -130 -31.5t-73.5 -82t-37.5 -109.5 l-254 -1219q-23 -111 -72 -196.5t-134 -134t-218 -48.5q-37 0 -83 7.5t-77 17.5v242z" />
<glyph unicode="&#xe0;" horiz-adv-x="1216" d="M90 385q0 137 37 270t104.5 243t162.5 175.5t214 65.5q106 0 173 -45t104 -119h8l57 143h232l-238 -1118h-225l14 145h-8q-59 -74 -136 -119.5t-183 -45.5q-80 0 -153 39.5t-118 129t-45 236.5zM395 399q0 -176 129 -176q61 0 114.5 49.5t91.5 127t54 163.5q14 74 15 168 q0 72 -37 118t-103 46q-55 0 -103 -44t-84 -115.5t-56.5 -160t-20.5 -176.5zM498 1548v21h311q16 -70 46 -149t69 -154v-25h-184q-41 41 -88.5 95.5t-88 109.5t-65.5 102z" />
<glyph unicode="&#xe1;" horiz-adv-x="1216" d="M90 385q0 137 37 270t104.5 243t162.5 175.5t214 65.5q106 0 173 -45t104 -119h8l57 143h232l-238 -1118h-225l14 145h-8q-59 -74 -136 -119.5t-183 -45.5q-80 0 -153 39.5t-118 129t-45 236.5zM395 399q0 -176 129 -176q61 0 114.5 49.5t91.5 127t54 163.5q14 74 15 168 q0 72 -37 118t-103 46q-55 0 -103 -44t-84 -115.5t-56.5 -160t-20.5 -176.5zM587 1241v25q51 57 113 144t109 159h335v-17q-23 -27 -64.5 -68.5t-92.5 -86.5t-101.5 -86t-89.5 -70h-209z" />
<glyph unicode="&#xe2;" horiz-adv-x="1216" d="M90 385q0 137 37 270t104.5 243t162.5 175.5t214 65.5q106 0 173 -45t104 -119h8l57 143h232l-238 -1118h-225l14 145h-8q-59 -74 -136 -119.5t-183 -45.5q-80 0 -153 39.5t-118 129t-45 236.5zM331 1241v25q41 39 96.5 92t110 109.5t88.5 101.5h338q31 -72 83 -158 t93 -145v-25h-198q-35 31 -81 78t-81 90q-59 -49 -115.5 -89t-115.5 -79h-218zM395 399q0 -176 129 -176q61 0 114.5 49.5t91.5 127t54 163.5q14 74 15 168q0 72 -37 118t-103 46q-55 0 -103 -44t-84 -115.5t-56.5 -160t-20.5 -176.5z" />
<glyph unicode="&#xe3;" horiz-adv-x="1216" d="M90 385q0 137 37 270t104.5 243t162.5 175.5t214 65.5q106 0 173 -45t104 -119h8l57 143h232l-238 -1118h-225l14 145h-8q-59 -74 -136 -119.5t-183 -45.5q-80 0 -153 39.5t-118 129t-45 236.5zM356 1239q31 162 103.5 235.5t177.5 73.5q66 0 114 -26.5t87 -52t79 -25.5 q63 0 105 106h172q-35 -164 -107.5 -236.5t-179.5 -72.5q-66 0 -111.5 25.5t-84.5 52.5t-84 27q-66 0 -95 -107h-176zM395 399q0 -176 129 -176q61 0 114.5 49.5t91.5 127t54 163.5q14 74 15 168q0 72 -37 118t-103 46q-55 0 -103 -44t-84 -115.5t-56.5 -160t-20.5 -176.5z " />
<glyph unicode="&#xe4;" horiz-adv-x="1216" d="M90 385q0 137 37 270t104.5 243t162.5 175.5t214 65.5q106 0 173 -45t104 -119h8l57 143h232l-238 -1118h-225l14 145h-8q-59 -74 -136 -119.5t-183 -45.5q-80 0 -153 39.5t-118 129t-45 236.5zM395 399q0 -176 129 -176q61 0 114.5 49.5t91.5 127t54 163.5q14 74 15 168 q0 72 -37 118t-103 46q-55 0 -103 -44t-84 -115.5t-56.5 -160t-20.5 -176.5zM447 1382q0 78 40 118t111 40q51 0 88 -23.5t37 -84.5q0 -72 -35.5 -116t-113.5 -44q-55 0 -91 24.5t-36 85.5zM830 1382q0 78 40 118t111 40q51 0 88 -23.5t37 -84.5q0 -72 -35.5 -116 t-113.5 -44q-55 0 -91 24.5t-36 85.5z" />
<glyph unicode="&#xe5;" horiz-adv-x="1216" d="M90 385q0 137 37 270t104.5 243t162.5 175.5t214 65.5q106 0 173 -45t104 -119h8l57 143h232l-238 -1118h-225l14 145h-8q-59 -74 -136 -119.5t-183 -45.5q-80 0 -153 39.5t-118 129t-45 236.5zM395 399q0 -176 129 -176q61 0 114.5 49.5t91.5 127t54 163.5q14 74 15 168 q0 72 -37 118t-103 46q-55 0 -103 -44t-84 -115.5t-56.5 -160t-20.5 -176.5zM529 1477q0 111 68.5 174t178.5 63q106 0 180 -63.5t74 -171.5q0 -113 -72.5 -176.5t-181.5 -63.5q-111 0 -179 63.5t-68 174.5zM680 1477q0 -45 24.5 -71t71.5 -26q41 0 69 26t28 71t-28 70.5 t-69 25.5t-68.5 -25.5t-27.5 -70.5z" />
<glyph unicode="&#xe6;" horiz-adv-x="1785" d="M90 385q0 147 37 282.5t105.5 242t162.5 168t207 61.5q102 0 163.5 -42t106.5 -122h11l57 143h188l-18 -90q47 53 126 82t163 29q162 0 249 -86t87 -219q0 -176 -159 -283t-484 -107h-52q-2 -12 -2 -20v-18q0 -80 47.5 -139.5t167.5 -59.5q76 0 161 25.5t153 60.5v-227 q-78 -37 -170 -61.5t-191 -24.5q-109 0 -179.5 27.5t-117.5 86.5l-16 -94h-188l14 145h-10q-59 -74 -131.5 -119.5t-178.5 -45.5q-137 0 -223 103t-86 302zM395 399q0 -94 37 -135t86 -41q88 0 152.5 90t95.5 217q23 94 22 189q0 80 -32.5 128t-102.5 48q-57 0 -104 -44 t-82 -115.5t-53.5 -160t-18.5 -176.5zM1073 647h45q174 0 251 54.5t77 125.5q0 94 -105 95q-55 0 -110 -35t-97 -96.5t-61 -143.5z" />
<glyph unicode="&#xe7;" horiz-adv-x="989" d="M90 391q0 152 39 286t114.5 238.5t186.5 164t252 59.5q100 0 179 -18.5t149 -53.5l-92 -229q-53 23 -105.5 40t-118.5 17q-94 0 -161.5 -70.5t-102.5 -180t-35 -228.5q0 -94 45 -143.5t127 -49.5q76 0 140.5 23.5t134.5 58.5v-246q-70 -37 -151 -58t-185 -21 q-115 0 -210 41.5t-150.5 132t-55.5 237.5zM199 -301q23 -8 56.5 -15.5t68.5 -7.5q102 0 102 82q0 35 -31.5 57.5t-109.5 30.5l96 154h185l-39 -72q59 -20 100 -61t41 -117q0 -102 -74.5 -172t-242.5 -70q-47 0 -88 7.5t-64 15.5v168z" />
<glyph unicode="&#xe8;" horiz-adv-x="1140" d="M90 412q0 141 40 271t119 232.5t195.5 163t270.5 60.5q188 0 281.5 -86t93.5 -219q0 -176 -159 -283t-485 -107h-51q-2 -12 -2 -21v-20q0 -90 52.5 -143t146.5 -53q88 0 159.5 20.5t170.5 65.5v-227q-88 -43 -178.5 -64.5t-211.5 -21.5q-197 0 -319.5 107.5t-122.5 324.5 zM428 647h45q174 0 251 54.5t77 125.5q0 94 -105 95q-55 0 -110.5 -35t-97.5 -96.5t-60 -143.5zM473 1548v21h311q16 -70 46 -149t69 -154v-25h-184q-41 41 -88.5 95.5t-88 109.5t-65.5 102z" />
<glyph unicode="&#xe9;" horiz-adv-x="1140" d="M90 412q0 141 40 271t119 232.5t195.5 163t270.5 60.5q188 0 281.5 -86t93.5 -219q0 -176 -159 -283t-485 -107h-51q-2 -12 -2 -21v-20q0 -90 52.5 -143t146.5 -53q88 0 159.5 20.5t170.5 65.5v-227q-88 -43 -178.5 -64.5t-211.5 -21.5q-197 0 -319.5 107.5t-122.5 324.5 zM428 647h45q174 0 251 54.5t77 125.5q0 94 -105 95q-55 0 -110.5 -35t-97.5 -96.5t-60 -143.5zM563 1241v25q51 57 113 144t109 159h335v-17q-23 -27 -64.5 -68.5t-92.5 -86.5t-101.5 -86t-89.5 -70h-209z" />
<glyph unicode="&#xea;" horiz-adv-x="1140" d="M90 412q0 141 40 271t119 232.5t195.5 163t270.5 60.5q188 0 281.5 -86t93.5 -219q0 -176 -159 -283t-485 -107h-51q-2 -12 -2 -21v-20q0 -90 52.5 -143t146.5 -53q88 0 159.5 20.5t170.5 65.5v-227q-88 -43 -178.5 -64.5t-211.5 -21.5q-197 0 -319.5 107.5t-122.5 324.5 zM307 1241v25q41 39 96.5 92t110 109.5t88.5 101.5h338q31 -72 83 -158t93 -145v-25h-198q-35 31 -81 78t-81 90q-59 -49 -115.5 -89t-115.5 -79h-218zM428 647h45q174 0 251 54.5t77 125.5q0 94 -105 95q-55 0 -110.5 -35t-97.5 -96.5t-60 -143.5z" />
<glyph unicode="&#xeb;" horiz-adv-x="1140" d="M90 412q0 141 40 271t119 232.5t195.5 163t270.5 60.5q188 0 281.5 -86t93.5 -219q0 -176 -159 -283t-485 -107h-51q-2 -12 -2 -21v-20q0 -90 52.5 -143t146.5 -53q88 0 159.5 20.5t170.5 65.5v-227q-88 -43 -178.5 -64.5t-211.5 -21.5q-197 0 -319.5 107.5t-122.5 324.5 zM422 1382q0 78 40 118t111 40q51 0 88 -23.5t37 -84.5q0 -72 -35.5 -116t-113.5 -44q-55 0 -91 24.5t-36 85.5zM428 647h45q174 0 251 54.5t77 125.5q0 94 -105 95q-55 0 -110.5 -35t-97.5 -96.5t-60 -143.5zM805 1382q0 78 40 118t111 40q51 0 88 -23.5t37 -84.5 q0 -72 -35.5 -116t-113.5 -44q-55 0 -91 24.5t-36 85.5z" />
<glyph unicode="&#xec;" horiz-adv-x="608" d="M37 0l237 1118h301l-237 -1118h-301zM195 1548v21h311q16 -70 46 -149t69 -154v-25h-184q-41 41 -88.5 95.5t-88 109.5t-65.5 102z" />
<glyph unicode="&#xed;" horiz-adv-x="608" d="M37 0l237 1118h301l-237 -1118h-301zM284 1241v25q51 57 113 144t109 159h335v-17q-23 -27 -64.5 -68.5t-92.5 -86.5t-101.5 -86t-89.5 -70h-209z" />
<glyph unicode="&#xee;" horiz-adv-x="608" d="M28 1241v25q41 39 96.5 92t110 109.5t88.5 101.5h338q31 -72 83 -158t93 -145v-25h-198q-35 31 -81 78t-81 90q-59 -49 -115.5 -89t-115.5 -79h-218zM37 0l237 1118h301l-237 -1118h-301z" />
<glyph unicode="&#xef;" horiz-adv-x="608" d="M37 0l237 1118h301l-237 -1118h-301zM144 1382q0 78 40 118t111 40q51 0 88 -23.5t37 -84.5q0 -72 -35.5 -116t-113.5 -44q-55 0 -91 24.5t-36 85.5zM527 1382q0 78 40 118t111 40q51 0 88 -23.5t37 -84.5q0 -72 -35.5 -116t-113.5 -44q-55 0 -91 24.5t-36 85.5z" />
<glyph unicode="&#xf0;" horiz-adv-x="1181" d="M72 406q0 158 60.5 291.5t175 215.5t274.5 82q102 0 164.5 -37.5t97.5 -87.5h10q-8 84 -33.5 165t-83.5 136l-231 -131l-88 148l200 112q-23 23 -55.5 42.5t-68.5 37.5l118 187q68 -31 128.5 -68t103.5 -72l237 132l76 -152l-192 -107q82 -106 113.5 -230t31.5 -275 q0 -166 -34 -313.5t-106.5 -260t-185 -177t-270.5 -64.5q-129 0 -228.5 44t-156.5 138t-57 244zM375 377q0 -80 38.5 -126t114.5 -46q74 0 128.5 59.5t85 151.5t30.5 186q0 72 -36 120t-111 48q-82 0 -138.5 -59.5t-84 -149.5t-27.5 -184z" />
<glyph unicode="&#xf1;" horiz-adv-x="1236" d="M37 0l237 1118h230l-21 -207h9q66 100 150.5 164t201.5 64q145 0 217 -87t72 -235q0 -74 -23 -180l-133 -637h-301l137 653q16 72 16 119q0 123 -108 123q-68 0 -123 -58.5t-95 -156.5t-67 -217l-98 -463h-301zM370 1239q31 162 103.5 235.5t177.5 73.5q66 0 114 -26.5 t87 -52t79 -25.5q63 0 105 106h172q-35 -164 -107.5 -236.5t-179.5 -72.5q-66 0 -111.5 25.5t-84.5 52.5t-84 27q-66 0 -95 -107h-176z" />
<glyph unicode="&#xf2;" horiz-adv-x="1198" d="M90 410q0 147 37 279t110.5 233.5t185.5 159t261 57.5q195 0 309.5 -117t114.5 -326q0 -141 -35 -270t-107.5 -229.5t-184 -158.5t-263.5 -58q-125 0 -222 52t-151.5 148t-54.5 230zM393 410q0 -185 150 -185q84 0 142 67.5t89 175t31 228.5q0 84 -32 140.5t-111 56.5 q-68 0 -119 -46t-84 -120t-49.5 -158t-16.5 -159zM473 1548v21h311q16 -70 46 -149t69 -154v-25h-184q-41 41 -88.5 95.5t-88 109.5t-65.5 102z" />
<glyph unicode="&#xf3;" horiz-adv-x="1198" d="M90 410q0 147 37 279t110.5 233.5t185.5 159t261 57.5q195 0 309.5 -117t114.5 -326q0 -141 -35 -270t-107.5 -229.5t-184 -158.5t-263.5 -58q-125 0 -222 52t-151.5 148t-54.5 230zM393 410q0 -185 150 -185q84 0 142 67.5t89 175t31 228.5q0 84 -32 140.5t-111 56.5 q-68 0 -119 -46t-84 -120t-49.5 -158t-16.5 -159zM563 1241v25q51 57 113 144t109 159h335v-17q-23 -27 -64.5 -68.5t-92.5 -86.5t-101.5 -86t-89.5 -70h-209z" />
<glyph unicode="&#xf4;" horiz-adv-x="1198" d="M90 410q0 147 37 279t110.5 233.5t185.5 159t261 57.5q195 0 309.5 -117t114.5 -326q0 -141 -35 -270t-107.5 -229.5t-184 -158.5t-263.5 -58q-125 0 -222 52t-151.5 148t-54.5 230zM307 1241v25q41 39 96.5 92t110 109.5t88.5 101.5h338q31 -72 83 -158t93 -145v-25 h-198q-35 31 -81 78t-81 90q-59 -49 -115.5 -89t-115.5 -79h-218zM393 410q0 -185 150 -185q84 0 142 67.5t89 175t31 228.5q0 84 -32 140.5t-111 56.5q-68 0 -119 -46t-84 -120t-49.5 -158t-16.5 -159z" />
<glyph unicode="&#xf5;" horiz-adv-x="1198" d="M90 410q0 147 37 279t110.5 233.5t185.5 159t261 57.5q195 0 309.5 -117t114.5 -326q0 -141 -35 -270t-107.5 -229.5t-184 -158.5t-263.5 -58q-125 0 -222 52t-151.5 148t-54.5 230zM331 1239q31 162 103.5 235.5t177.5 73.5q66 0 114 -26.5t87 -52t79 -25.5 q63 0 105 106h172q-35 -164 -107.5 -236.5t-179.5 -72.5q-66 0 -111.5 25.5t-84.5 52.5t-84 27q-66 0 -95 -107h-176zM393 410q0 -185 150 -185q84 0 142 67.5t89 175t31 228.5q0 84 -32 140.5t-111 56.5q-68 0 -119 -46t-84 -120t-49.5 -158t-16.5 -159z" />
<glyph unicode="&#xf6;" horiz-adv-x="1198" d="M90 410q0 147 37 279t110.5 233.5t185.5 159t261 57.5q195 0 309.5 -117t114.5 -326q0 -141 -35 -270t-107.5 -229.5t-184 -158.5t-263.5 -58q-125 0 -222 52t-151.5 148t-54.5 230zM393 410q0 -185 150 -185q84 0 142 67.5t89 175t31 228.5q0 84 -32 140.5t-111 56.5 q-68 0 -119 -46t-84 -120t-49.5 -158t-16.5 -159zM422 1382q0 78 40 118t111 40q51 0 88 -23.5t37 -84.5q0 -72 -35.5 -116t-113.5 -44q-55 0 -91 24.5t-36 85.5zM805 1382q0 78 40 118t111 40q51 0 88 -23.5t37 -84.5q0 -72 -35.5 -116t-113.5 -44q-55 0 -91 24.5t-36 85.5 z" />
<glyph unicode="&#xf7;" horiz-adv-x="1171" d="M109 612v219h993v-219h-993zM465 373q0 84 41 117.5t98 33.5q55 0 97 -33.5t42 -117.5q0 -80 -42 -116t-97 -36q-57 0 -98 36t-41 116zM465 1071q0 84 41 118t98 34q55 0 97 -34t42 -118q0 -80 -42 -115.5t-97 -35.5q-57 0 -98 35.5t-41 115.5z" />
<glyph unicode="&#xf8;" horiz-adv-x="1198" d="M43 6l119 148q-72 106 -72 256q0 147 37 279t110.5 233.5t185.5 159t261 57.5q133 0 227 -56l70 88l145 -110l-84 -105q66 -106 66 -260q0 -141 -35 -270t-107.5 -229.5t-184 -158.5t-263.5 -58q-63 0 -120.5 14t-104.5 39l-109 -135zM385 426l365 453q-12 10 -37 17 t-51 7q-74 0 -124.5 -40t-82 -105.5t-48 -140t-20.5 -142.5q-2 -12 -2 -24.5v-24.5zM457 238q10 -8 34.5 -15.5t51.5 -7.5q70 0 119 42t80.5 106.5t49 139.5t21.5 138q2 10 2 21.5v19.5z" />
<glyph unicode="&#xf9;" horiz-adv-x="1236" d="M111 301q0 37 6 95.5t18 117.5l127 604h301l-137 -653q-16 -72 -16 -119q0 -123 108 -123q70 0 124 58.5t95 157t66 216.5l98 463h301l-237 -1118h-230l21 207h-11q-63 -100 -148 -163.5t-202 -63.5q-143 0 -213.5 87t-70.5 234zM508 1548v21h311q16 -70 46 -149t69 -154 v-25h-184q-41 41 -88.5 95.5t-88 109.5t-65.5 102z" />
<glyph unicode="&#xfa;" horiz-adv-x="1236" d="M111 301q0 37 6 95.5t18 117.5l127 604h301l-137 -653q-16 -72 -16 -119q0 -123 108 -123q70 0 124 58.5t95 157t66 216.5l98 463h301l-237 -1118h-230l21 207h-11q-63 -100 -148 -163.5t-202 -63.5q-143 0 -213.5 87t-70.5 234zM598 1241v25q51 57 113 144t109 159h335 v-17q-23 -27 -64.5 -68.5t-92.5 -86.5t-101.5 -86t-89.5 -70h-209z" />
<glyph unicode="&#xfb;" horiz-adv-x="1236" d="M111 301q0 37 6 95.5t18 117.5l127 604h301l-137 -653q-16 -72 -16 -119q0 -123 108 -123q70 0 124 58.5t95 157t66 216.5l98 463h301l-237 -1118h-230l21 207h-11q-63 -100 -148 -163.5t-202 -63.5q-143 0 -213.5 87t-70.5 234zM342 1241v25q41 39 96.5 92t110 109.5 t88.5 101.5h338q31 -72 83 -158t93 -145v-25h-198q-35 31 -81 78t-81 90q-59 -49 -115.5 -89t-115.5 -79h-218z" />
<glyph unicode="&#xfc;" horiz-adv-x="1236" d="M111 301q0 37 6 95.5t18 117.5l127 604h301l-137 -653q-16 -72 -16 -119q0 -123 108 -123q70 0 124 58.5t95 157t66 216.5l98 463h301l-237 -1118h-230l21 207h-11q-63 -100 -148 -163.5t-202 -63.5q-143 0 -213.5 87t-70.5 234zM457 1382q0 78 40 118t111 40 q51 0 88 -23.5t37 -84.5q0 -72 -35.5 -116t-113.5 -44q-55 0 -91 24.5t-36 85.5zM840 1382q0 78 40 118t111 40q51 0 88 -23.5t37 -84.5q0 -72 -35.5 -116t-113.5 -44q-55 0 -91 24.5t-36 85.5z" />
<glyph unicode="&#xfd;" horiz-adv-x="1062" d="M-141 -233q27 -4 54.5 -8.5t61.5 -4.5q96 0 158 55.5t107 141.5l26 49l-164 1118h295l56 -518q8 -70 10 -151.5t2 -141.5h8q20 51 45 120t64 153l260 538h327l-680 -1278q-90 -170 -211.5 -251t-271.5 -81q-53 0 -88 5.5t-59 13.5v240zM473 1241v25q51 57 113 144 t109 159h335v-17q-23 -27 -64.5 -68.5t-92.5 -86.5t-101.5 -86t-89.5 -70h-209z" />
<glyph unicode="&#xfe;" horiz-adv-x="1218" d="M-68 -492l435 2048h301l-66 -307q-14 -63 -36.5 -142t-43.5 -138h8q129 170 283 170q139 0 227 -100.5t88 -307.5q0 -123 -30.5 -254t-93 -244.5t-156.5 -183t-221 -69.5q-102 0 -166 47t-105 116h-8q-6 -82 -16 -149.5t-27 -145.5l-72 -340h-301zM420 399 q0 -80 33.5 -128t105.5 -48q59 0 107.5 44t83 116t54 160t19.5 176t-37.5 132t-103.5 44q-63 0 -112.5 -47t-83 -124t-52.5 -165q-6 -39 -10 -80t-4 -80z" />
<glyph unicode="&#xff;" horiz-adv-x="1062" d="M-141 -233q27 -4 54.5 -8.5t61.5 -4.5q96 0 158 55.5t107 141.5l26 49l-164 1118h295l56 -518q8 -70 10 -151.5t2 -141.5h8q20 51 45 120t64 153l260 538h327l-680 -1278q-90 -170 -211.5 -251t-271.5 -81q-53 0 -88 5.5t-59 13.5v240zM332 1382q0 78 40 118t111 40 q51 0 88 -23.5t37 -84.5q0 -72 -35.5 -116t-113.5 -44q-55 0 -91 24.5t-36 85.5zM715 1382q0 78 40 118t111 40q51 0 88 -23.5t37 -84.5q0 -72 -35.5 -116t-113.5 -44q-55 0 -91 24.5t-36 85.5z" />
<glyph unicode="&#x152;" horiz-adv-x="1845" d="M123 537q0 172 46 339.5t141.5 305t241.5 220.5t345 83q72 0 119 -4t90 -19h809l-53 -254h-512l-68 -321h477l-55 -254h-477l-80 -377h512l-53 -256h-760q-41 -8 -87 -14t-93 -6q-266 0 -404.5 152.5t-138.5 404.5zM434 537q0 -145 67.5 -221t186.5 -76q41 0 81 8t77 24 l194 916q-33 20 -75.5 29.5t-92.5 9.5q-94 0 -175 -54.5t-139 -150.5t-91 -220t-33 -265z" />
<glyph unicode="&#x153;" horiz-adv-x="1806" d="M90 414q0 147 35 278t106.5 231.5t180 158t256.5 57.5q106 0 185 -41t128 -119q72 74 170 117t229 43q188 0 281.5 -86t93.5 -219q0 -176 -158.5 -283t-484.5 -107h-51q-2 -12 -2 -21v-20q0 -90 52 -143t146 -53q88 0 160 20.5t170 65.5v-227q-88 -43 -178 -64.5 t-211 -21.5q-109 0 -202 35.5t-144 109.5q-63 -68 -147 -106.5t-207 -38.5q-182 0 -295 114.5t-113 319.5zM393 414q0 -90 37 -139.5t109 -49.5q80 0 136 67.5t84.5 175t28.5 228.5q0 84 -32.5 140.5t-110.5 56.5q-66 0 -113 -45t-77.5 -118t-46 -157t-15.5 -159zM1094 647 h45q174 0 250.5 54.5t76.5 125.5q0 94 -104 95q-55 0 -110.5 -35t-97.5 -96.5t-60 -143.5z" />
<glyph unicode="&#x178;" horiz-adv-x="1155" d="M186 1462h312l129 -592l374 592h342l-618 -903l-119 -559h-303l119 559zM469 1726q0 78 40 118t111 40q51 0 88 -23.5t37 -84.5q0 -72 -35.5 -116t-113.5 -44q-55 0 -91 24.5t-36 85.5zM852 1726q0 78 40 118t111 40q51 0 88 -23.5t37 -84.5q0 -72 -35.5 -116t-113.5 -44 q-55 0 -91 24.5t-36 85.5z" />
<glyph unicode="&#x2c6;" horiz-adv-x="976" d="M231 1241v25q41 39 96.5 92t110 109.5t88.5 101.5h338q31 -72 83 -158t93 -145v-25h-198q-35 31 -81 78t-81 90q-59 -49 -115.5 -89t-115.5 -79h-218z" />
<glyph unicode="&#x2dc;" horiz-adv-x="935" d="M227 1239q31 162 103.5 235.5t177.5 73.5q66 0 114 -26.5t87 -52t79 -25.5q63 0 105 106h172q-35 -164 -107.5 -236.5t-179.5 -72.5q-66 0 -111.5 25.5t-84.5 52.5t-84 27q-66 0 -95 -107h-176z" />
<glyph unicode="&#x2000;" horiz-adv-x="1029" />
<glyph unicode="&#x2001;" horiz-adv-x="2058" />
<glyph unicode="&#x2002;" horiz-adv-x="1029" />
<glyph unicode="&#x2003;" horiz-adv-x="2058" />
<glyph unicode="&#x2004;" horiz-adv-x="686" />
<glyph unicode="&#x2005;" horiz-adv-x="514" />
<glyph unicode="&#x2006;" horiz-adv-x="343" />
<glyph unicode="&#x2007;" horiz-adv-x="343" />
<glyph unicode="&#x2008;" horiz-adv-x="257" />
<glyph unicode="&#x2009;" horiz-adv-x="411" />
<glyph unicode="&#x200a;" horiz-adv-x="114" />
<glyph unicode="&#x2010;" horiz-adv-x="659" d="M41 424l53 250h524l-53 -250h-524z" />
<glyph unicode="&#x2011;" horiz-adv-x="659" d="M41 424l53 250h524l-53 -250h-524z" />
<glyph unicode="&#x2012;" horiz-adv-x="659" d="M41 424l53 250h524l-53 -250h-524z" />
<glyph unicode="&#x2013;" horiz-adv-x="983" d="M41 436l49 230h852l-49 -230h-852z" />
<glyph unicode="&#x2014;" horiz-adv-x="1966" d="M41 436l49 230h1835l-49 -230h-1835z" />
<glyph unicode="&#x2018;" horiz-adv-x="440" d="M115 983q47 106 118.5 236.5t143.5 242.5h225q-51 -121 -103.5 -258t-90.5 -243h-285z" />
<glyph unicode="&#x2019;" horiz-adv-x="440" d="M106 961q53 121 104.5 258t90.5 243h285l8 -22q-47 -106 -119 -235.5t-143 -243.5h-226z" />
<glyph unicode="&#x201a;" horiz-adv-x="569" d="M-102 -264q53 121 104 258t90 244h285l8 -23q-47 -106 -118.5 -235.5t-143.5 -243.5h-225z" />
<glyph unicode="&#x201c;" horiz-adv-x="886" d="M115 983q47 106 118.5 236.5t143.5 242.5h225q-51 -121 -103.5 -258t-90.5 -243h-285zM561 983q47 106 119 236.5t143 242.5h226q-51 -121 -103.5 -258t-91.5 -243h-285z" />
<glyph unicode="&#x201d;" horiz-adv-x="886" d="M106 961q53 121 104.5 258t90.5 243h285l8 -22q-47 -106 -119 -235.5t-143 -243.5h-226zM553 961q53 121 104.5 258t90.5 243h284l8 -22q-47 -106 -118.5 -235.5t-143.5 -243.5h-225z" />
<glyph unicode="&#x201e;" horiz-adv-x="1017" d="M-102 -264q53 121 104 258t90 244h285l8 -23q-47 -106 -118.5 -235.5t-143.5 -243.5h-225zM346 -264q53 121 104.5 258t90.5 244h284l9 -23q-47 -106 -119 -235.5t-144 -243.5h-225z" />
<glyph unicode="&#x2022;" horiz-adv-x="770" d="M139 748q0 172 83 244.5t204 72.5q80 0 144.5 -32t103.5 -101.5t39 -183.5q0 -168 -84 -243t-203 -75q-121 0 -204 75t-83 243z" />
<glyph unicode="&#x2026;" horiz-adv-x="1705" d="M25 115q0 74 46 136t158 62q68 0 109 -37.5t41 -107.5q0 -84 -54.5 -139.5t-144.5 -55.5q-86 0 -120.5 44t-34.5 98zM586 115q0 74 46 136t158 62q68 0 109 -37.5t41 -107.5q0 -84 -54.5 -139.5t-144.5 -55.5q-86 0 -120.5 44t-34.5 98zM1147 115q0 74 46 136t158 62 q68 0 109 -37.5t41 -107.5q0 -84 -54.5 -139.5t-144.5 -55.5q-86 0 -120.5 44t-34.5 98z" />
<glyph unicode="&#x202f;" horiz-adv-x="411" />
<glyph unicode="&#x2039;" horiz-adv-x="663" d="M72 551v18l401 463l191 -155l-279 -334l135 -350l-246 -103z" />
<glyph unicode="&#x203a;" horiz-adv-x="663" d="M0 246l279 334l-136 350l246 102l203 -461v-18l-402 -463z" />
<glyph unicode="&#x205f;" horiz-adv-x="514" />
<glyph unicode="&#x20ac;" d="M41 481l37 178h127q4 23 9 54.5t13 60.5h-125l39 176h135q90 260 255 397.5t370 137.5q109 0 188.5 -25.5t155.5 -77.5l-125 -223q-63 35 -112.5 56.5t-108.5 21.5q-96 0 -176 -75t-135 -212h348l-39 -176h-360q-8 -31 -14.5 -58.5t-10.5 -56.5h299l-37 -178h-280 q0 -119 45 -181t147 -62q74 0 143.5 17t139.5 46v-258q-127 -63 -330 -63q-229 0 -337.5 130t-108.5 371h-152z" />
<glyph unicode="&#x2122;" horiz-adv-x="1583" d="M35 1352v110h545v-110h-209v-611h-129v611h-207zM666 741v721h192l193 -555l198 555h187v-721h-131v418q0 16 2 64.5t4 72.5h-8l-207 -555h-109l-196 555h-9q2 -33 4 -73.5t2 -53.5v-428h-122z" />
<glyph unicode="&#x25fc;" horiz-adv-x="1116" d="M0 0v1116h1116v-1116h-1116z" />
</font>
</defs>
</svg>
