<?xml version="1.0" standalone="no"?>
<!DOCTYPE svg PUBLIC "-//W3C//DTD SVG 1.1//EN" "http://www.w3.org/Graphics/SVG/1.1/DTD/svg11.dtd" >
<svg xmlns="http://www.w3.org/2000/svg" xmlns:xlink="http://www.w3.org/1999/xlink" version="1.1">
<metadata></metadata>
<defs>
<font id="noto_sansitalic" horiz-adv-x="1128" >
<font-face units-per-em="2048" ascent="1638" descent="-410" />
<missing-glyph horiz-adv-x="532" />
<glyph unicode="&#xfb01;" horiz-adv-x="1179" d="M-229 -319q29 -8 55.5 -15.5t58.5 -7.5q74 0 115 60.5t66 172.5l225 1070h-191l15 75l204 68l23 98q33 141 81 220t119.5 112t172.5 33q51 0 105 -11.5t87 -27.5l-47 -137q-29 10 -62.5 19t-74.5 9q-80 0 -126 -45t-75 -172l-24 -104h235l-26 -137h-236l-229 -1090 q-37 -170 -115 -266.5t-225 -96.5q-39 0 -72 6.5t-59 14.5v152zM708 0l234 1098h180l-233 -1098h-181zM989 1376q0 53 31.5 92t89.5 39q94 0 94 -92q0 -63 -37 -99t-80 -36t-70.5 25.5t-27.5 70.5z" />
<glyph unicode="&#xfb02;" horiz-adv-x="1179" d="M-229 -319q29 -8 55.5 -15.5t58.5 -7.5q74 0 115 60.5t66 172.5l225 1070h-191l15 75l204 68l23 98q33 141 81 220t119.5 112t172.5 33q51 0 105 -11.5t87 -27.5l-47 -137q-29 10 -62.5 19t-74.5 9q-80 0 -126 -45t-75 -172l-24 -104h235l-26 -137h-236l-229 -1090 q-37 -170 -115 -266.5t-225 -96.5q-39 0 -72 6.5t-59 14.5v152zM706 0l332 1556h180l-331 -1556h-181z" />
<glyph unicode="&#xfb03;" horiz-adv-x="1835" d="M-229 -319q29 -8 55.5 -15.5t58.5 -7.5q61 0 107.5 51t73.5 182l225 1070h-191l15 75l204 68l23 98q33 141 81 220t119.5 112t172.5 33q51 0 105 -11.5t87 -27.5l-47 -137q-29 10 -62.5 19t-74.5 9q-80 0 -126 -45t-75 -172l-24 -104h473l24 106q33 139 81 218t120 112 t172 33q53 0 107.5 -11.5t87.5 -27.5l-50 -137q-29 10 -62.5 19t-72.5 9q-82 0 -128 -45t-74 -172l-25 -104h238l-29 -137h-236l-229 -1090q-37 -170 -113.5 -266.5t-226.5 -96.5q-78 0 -129 21v152q25 -8 53.5 -15.5t61.5 -7.5q61 0 106 52t72 181l225 1070h-473 l-229 -1090q-37 -170 -115 -266.5t-225 -96.5q-39 0 -72 6.5t-59 14.5v152zM1364 0l235 1098h181l-236 -1098h-180zM1647 1376q0 53 31.5 92t88.5 39q92 0 93 -92q0 -63 -37 -99t-80 -36q-39 0 -67.5 25.5t-28.5 70.5z" />
<glyph unicode="&#xfb04;" horiz-adv-x="1835" d="M-229 -319q29 -8 55.5 -15.5t58.5 -7.5q61 0 107.5 51t73.5 182l225 1070h-191l15 75l204 68l23 98q33 141 81 220t119.5 112t172.5 33q51 0 105 -11.5t87 -27.5l-47 -137q-29 10 -62.5 19t-74.5 9q-80 0 -126 -45t-75 -172l-24 -104h473l24 106q33 139 81 218t120 112 t172 33q53 0 107.5 -11.5t87.5 -27.5l-50 -137q-29 10 -62.5 19t-72.5 9q-82 0 -128 -45t-74 -172l-25 -104h238l-29 -137h-236l-229 -1090q-37 -170 -113.5 -266.5t-226.5 -96.5q-78 0 -129 21v152q25 -8 53.5 -15.5t61.5 -7.5q61 0 106 52t72 181l225 1070h-473 l-229 -1090q-37 -170 -115 -266.5t-225 -96.5q-39 0 -72 6.5t-59 14.5v152zM1364 0l330 1556h180l-332 -1556h-178z" />
<glyph horiz-adv-x="0" />
<glyph horiz-adv-x="682" />
<glyph horiz-adv-x="0" />
<glyph horiz-adv-x="0" />
<glyph unicode="&#xd;" horiz-adv-x="532" />
<glyph unicode=" "  horiz-adv-x="532" />
<glyph unicode="&#x09;" horiz-adv-x="532" />
<glyph unicode="&#xa0;" horiz-adv-x="532" />
<glyph unicode="!" horiz-adv-x="534" d="M41 82q0 66 37 116t117 50q47 0 75.5 -29t28.5 -82q0 -59 -35.5 -112.5t-113.5 -53.5q-109 0 -109 111zM158 412l186 1050h219l-260 -1050h-145z" />
<glyph unicode="&#x22;" horiz-adv-x="802" d="M223 934l72 528h197l-154 -528h-115zM575 934l72 528h197l-154 -528h-115z" />
<glyph unicode="#" horiz-adv-x="1323" d="M61 428l13 135h284l99 332h-275l13 133h299l122 434h148l-125 -434h295l127 434h139l-123 -434h262l-14 -133h-289l-96 -332h283l-13 -135h-309l-123 -428h-147l129 428h-295l-125 -428h-141l120 428h-258zM504 563h295l92 332h-293z" />
<glyph unicode="$" d="M70 176v164q80 -41 174 -64.5t174 -25.5l96 440q-125 47 -197.5 118t-72.5 200q0 117 54 194.5t148.5 121.5t210.5 54l39 174h133l-36 -176q78 -6 149.5 -24.5t132.5 -51.5l-67 -145q-47 27 -110.5 48.5t-135.5 25.5l-92 -428q139 -51 209.5 -120t70.5 -189 q0 -119 -57 -200t-153.5 -127t-217.5 -61l-49 -223h-133l49 221q-84 4 -170 23.5t-149 50.5zM410 1012q0 -51 33.5 -94.5t103.5 -69.5l80 381q-96 -10 -156.5 -63.5t-60.5 -153.5zM553 256q94 12 159.5 68.5t65.5 152.5q0 53 -31.5 94t-109.5 72z" />
<glyph unicode="%" horiz-adv-x="1636" d="M164 862q0 59 10 139t36 164t70 157t111.5 117t161.5 44q117 0 178.5 -73t61.5 -208q0 -55 -11.5 -136t-38 -168t-72.5 -163t-113 -123t-159 -47q-113 0 -174 77t-61 220zM231 0l1086 1462h160l-1086 -1462h-160zM311 864q1 -164 103 -164q53 0 93 40t66.5 102.5t42 130 t22.5 127t7 90.5q0 84 -26.5 122t-77.5 38q-53 0 -92 -37t-66 -94.5t-42 -124t-22.5 -128t-7.5 -102.5zM915 274q0 61 10.5 142.5t36 165.5t70.5 155.5t111.5 115.5t161.5 44q119 0 180 -72.5t61 -206.5q0 -55 -12 -136t-39 -168t-72 -163.5t-112.5 -123.5t-159.5 -47 q-113 0 -174.5 75.5t-61.5 218.5zM1065 279q0 -164 100 -164q53 0 93 40t67 102t42 131t22.5 127t7.5 89q0 84 -27 122t-78 38q-53 0 -92 -37t-64.5 -94.5t-41 -124t-22.5 -128t-7 -101.5z" />
<glyph unicode="&#x26;" horiz-adv-x="1378" d="M66 344q0 164 101 271.5t288 195.5q-39 66 -70 142.5t-31 162.5q0 104 46 187t134.5 132.5t213.5 49.5q150 0 237.5 -79t87.5 -214q0 -102 -54 -176t-144.5 -130.5t-198.5 -111.5l270 -377q68 59 115 136t80 159h180q-51 -125 -123 -229.5t-162 -190.5l203 -272h-213 l-113 160q-96 -78 -204.5 -129t-266.5 -51q-166 0 -271 93t-105 271zM244 356q0 -104 65.5 -165.5t167.5 -61.5q109 0 192 44t158 106l-297 421q-74 -39 -139 -84t-106 -107.5t-41 -152.5zM526 1116q0 -120 78 -229q66 33 133.5 72.5t114.5 93t47 125.5t-41 116.5t-119 44.5 q-100 0 -156.5 -59t-56.5 -164z" />
<glyph unicode="'" horiz-adv-x="450" d="M223 934l72 528h197l-154 -528h-115z" />
<glyph unicode="(" horiz-adv-x="593" d="M82 272q0 367 131 654.5t373 535.5h166q-145 -160 -258 -345t-176.5 -395t-63.5 -448q0 -178 29.5 -324.5t85.5 -273.5h-140q-70 125 -108.5 276.5t-38.5 319.5z" />
<glyph unicode=")" horiz-adv-x="593" d="M-158 -324q145 162 257 346.5t175.5 395.5t63.5 446q0 176 -28.5 324.5t-84.5 273.5h140q70 -125 107.5 -276.5t37.5 -321.5q0 -365 -130 -652.5t-374 -535.5h-164z" />
<glyph unicode="*" d="M211 1190l57 160l369 -183l41 396l178 -35l-121 -381l418 20l-8 -168l-389 48l178 -379l-172 -54l-111 400l-252 -338l-125 125l306 280z" />
<glyph unicode="+" horiz-adv-x="1171" d="M143 649v146h408v424h147v-424h408v-146h-408v-422h-147v422h-408z" />
<glyph unicode="," horiz-adv-x="524" d="M-88 -264q53 121 108.5 258t94.5 244h196l8 -23q-51 -109 -124.5 -238t-145.5 -241h-137z" />
<glyph unicode="-" horiz-adv-x="641" d="M53 465l37 166h483l-36 -166h-484z" />
<glyph unicode="." horiz-adv-x="524" d="M41 78q0 68 38 119t120 51q45 0 72.5 -27.5t27.5 -81.5q0 -63 -37 -115.5t-115 -52.5q-106 0 -106 107z" />
<glyph unicode="/" horiz-adv-x="729" d="M-94 0l813 1462h184l-811 -1462h-186z" />
<glyph unicode="0" d="M117 477q0 121 20.5 258t64.5 269.5t115.5 241t173 174t234.5 65.5q188 0 278.5 -122t90.5 -349q0 -147 -22.5 -295t-69 -281t-118 -236.5t-172 -162.5t-229.5 -59q-180 0 -273 129t-93 368zM299 477q0 -166 49.5 -255t155.5 -89q82 0 146.5 53.5t112.5 144.5t81 205.5 t49 238.5t16 243q0 152 -48 232.5t-146 80.5q-78 0 -143.5 -52t-115.5 -141t-85 -200t-53.5 -230.5t-18.5 -230.5z" />
<glyph unicode="1" d="M293 1171l459 291h157l-313 -1462h-182l194 905q20 96 44 194.5t42 157.5q-31 -33 -63.5 -57t-73.5 -51l-180 -113z" />
<glyph unicode="2" d="M6 0l33 154l465 419q135 123 221 209t127 164t41 174q0 92 -56.5 150.5t-160.5 58.5q-90 0 -166 -37t-148 -90l-86 123q84 68 186.5 113t233.5 45q186 0 285.5 -93.5t99.5 -240.5q0 -119 -45 -216t-146.5 -206t-271.5 -256l-344 -299v-8h668l-31 -164h-905z" />
<glyph unicode="3" d="M45 59v174q72 -39 176.5 -70.5t210.5 -31.5q164 0 252 79t88 212q0 127 -77 192.5t-218 65.5h-131l31 149h133q102 0 189 36t139.5 105.5t52.5 166.5q0 94 -58.5 144t-150.5 50q-94 0 -172 -32.5t-156 -86.5l-84 127q84 61 187.5 102.5t240.5 41.5q184 0 280.5 -89 t96.5 -235q0 -156 -100.5 -264.5t-278.5 -140.5v-9q117 -20 192 -101t75 -214q0 -115 -55.5 -218t-172.5 -167.5t-305 -64.5q-119 0 -212 21.5t-173 57.5z" />
<glyph unicode="4" d="M12 332l31 164l825 966h207l-203 -970h226l-35 -160h-227l-72 -332h-174l72 332h-650zM227 492h469l74 350q16 76 37.5 158.5t43 156.5t34.5 121h-8q-16 -27 -43 -63.5t-52.5 -71.5t-44.5 -56z" />
<glyph unicode="5" d="M76 59v174q74 -45 158.5 -73.5t175.5 -28.5q143 0 231 49t128 130t40 175q0 127 -73.5 197t-200.5 70q-61 0 -114.5 -10.5t-119.5 -26.5l-76 59l199 688h674l-35 -164h-518l-123 -424q37 8 80 14.5t98 6.5q182 0 289.5 -103.5t107.5 -283.5q0 -92 -29.5 -185.5t-96 -171 t-180 -124.5t-281.5 -47q-199 0 -334 79z" />
<glyph unicode="6" d="M129 428q0 143 33 304t102.5 309.5t177.5 252.5q88 90 209 139.5t279 49.5q111 0 188 -23l-37 -155q-33 10 -74.5 17t-97.5 7q-195 0 -343 -135t-220 -444h8q59 78 145.5 124t192.5 46q152 0 242 -96.5t90 -272.5q0 -102 -30.5 -203.5t-93 -184.5t-159 -133t-227.5 -50 q-172 0 -278.5 109.5t-106.5 338.5zM307 416q0 -74 22.5 -138.5t71.5 -105.5t131 -41q100 0 170 57.5t107 150.5t37 196q0 115 -53.5 177t-161.5 62q-74 0 -135.5 -32.5t-103.5 -80t-60 -90.5q-14 -33 -19.5 -73.5t-5.5 -81.5z" />
<glyph unicode="7" d="M166 0l764 1303h-711l33 159h899l-27 -143l-764 -1319h-194z" />
<glyph unicode="8" d="M92 346q0 158 102.5 264.5t284.5 175.5q-78 57 -126 129t-48 185q0 121 57.5 207t156.5 132t220 46q135 0 217 -46t119 -120t37 -158q0 -109 -48 -183.5t-126 -125.5t-168 -90q106 -63 168.5 -148.5t62.5 -218.5q0 -109 -52 -204t-162.5 -153t-282.5 -58 q-141 0 -232.5 50t-135.5 133t-44 183zM279 356q0 -106 68.5 -166.5t174.5 -60.5q102 0 168 38t96.5 98.5t30.5 125.5q0 98 -51 172t-160 131q-92 -29 -166.5 -70.5t-117.5 -106t-43 -161.5zM483 1100q0 -92 45 -151.5t117 -104.5q139 53 212 121.5t73 177.5q0 88 -55.5 139 t-149.5 51q-109 0 -175.5 -62.5t-66.5 -170.5z" />
<glyph unicode="9" d="M96 14v166q55 -18 115.5 -31.5t130.5 -13.5q205 0 327 141.5t183 425.5h-10q-51 -72 -132 -115.5t-180 -43.5q-168 0 -260 100t-92 287q0 147 61.5 273t176 203t272.5 77q180 0 280.5 -114t100.5 -337q0 -106 -18.5 -226t-53 -237.5t-85 -220t-115.5 -174.5 q-94 -104 -210 -149t-249 -45q-61 0 -124.5 9t-117.5 25zM356 938q0 -119 53.5 -184.5t157.5 -65.5q96 0 174 51.5t121 145.5q29 70 29 172q0 121 -55.5 197.5t-157.5 76.5t-174 -53t-110 -142t-38 -198z" />
<glyph unicode=":" horiz-adv-x="524" d="M41 78q0 68 38 119t120 51q45 0 72.5 -27.5t27.5 -81.5q0 -63 -37 -115.5t-115 -52.5q-106 0 -106 107zM203 954q0 70 38 121t119 51q45 0 73 -26.5t28 -81.5q0 -63 -37 -115.5t-115 -52.5q-106 0 -106 104z" />
<glyph unicode=";" horiz-adv-x="524" d="M-100 -264q53 121 108 258t94 244h197l8 -23q-51 -109 -124.5 -238t-145.5 -241h-137zM203 954q0 70 38 121t119 51q45 0 73 -26.5t28 -81.5q0 -63 -37 -115.5t-115 -52.5q-106 0 -106 104z" />
<glyph unicode="&#x3c;" horiz-adv-x="1171" d="M143 662v102l965 481v-160l-772 -364l772 -324v-159z" />
<glyph unicode="=" horiz-adv-x="1171" d="M156 444v146h938v-146h-938zM156 852v145h938v-145h-938z" />
<glyph unicode="&#x3e;" horiz-adv-x="1171" d="M143 238v159l772 322l-772 366v160l965 -481v-102z" />
<glyph unicode="?" horiz-adv-x="880" d="M158 78q0 68 37.5 119t119.5 51q45 0 73 -27.5t28 -81.5q0 -63 -37 -115.5t-115 -52.5q-106 0 -106 107zM195 1380q84 45 184 74t196 29q162 0 258.5 -80t96.5 -242q0 -137 -75 -239.5t-218 -208.5q-80 -57 -124 -98.5t-67.5 -86.5t-39.5 -116h-146q14 88 42 153.5 t76 121.5t122 114q66 51 122 98t91 104.5t35 135.5q0 90 -49.5 139t-143.5 49q-78 0 -152.5 -25.5t-142.5 -58.5z" />
<glyph unicode="@" horiz-adv-x="1736" d="M109 504q0 186 65.5 358t190 306.5t302 213t398.5 78.5q217 0 353 -85t200.5 -223t64.5 -302q0 -182 -56 -325.5t-154.5 -225.5t-225.5 -82q-115 0 -161 55.5t-54 126.5h-8q-45 -76 -114.5 -129t-172.5 -53q-113 0 -180.5 75t-67.5 212q0 166 71 292t188.5 195.5 t257.5 69.5q98 0 163.5 -18.5t118.5 -41.5l-96 -366q-16 -61 -24.5 -101t-8.5 -75q0 -63 29 -88t69 -25q63 0 114.5 43t87.5 113.5t55.5 158t19.5 175.5q0 135 -48 245.5t-156.5 177t-291.5 66.5q-176 0 -318 -62.5t-244.5 -174t-158 -259t-55.5 -317.5q0 -260 139.5 -410.5 t409.5 -150.5q111 0 221.5 25.5t200.5 60.5v-133q-106 -43 -221 -66.5t-224 -23.5q-207 0 -359.5 81.5t-236 236.5t-83.5 372zM645 518q0 -90 33 -131t96 -41q98 0 162.5 87t103.5 224l68 254q-20 8 -51 15.5t-72 7.5q-94 0 -172 -55.5t-123 -149.5t-45 -211z" />
<glyph unicode="A" horiz-adv-x="1150" d="M-117 0l795 1462h192l181 -1462h-181l-55 455h-493l-238 -455h-201zM410 618h387l-33 308q-8 78 -15.5 172t-9.5 166h-6q-33 -78 -76 -167t-90 -179z" />
<glyph unicode="B" horiz-adv-x="1228" d="M84 0l309 1462h379q203 0 318.5 -79.5t115.5 -256.5q0 -150 -90 -242.5t-239 -121.5v-10q100 -27 167.5 -100.5t67.5 -196.5q0 -150 -72.5 -251.5t-198.5 -152.5t-290 -51h-467zM299 156h258q174 0 268.5 77.5t94.5 221.5q0 98 -63.5 165.5t-215.5 67.5h-229zM444 840 h240q92 0 167 28.5t120 87t45 148.5q0 96 -61.5 148.5t-204.5 52.5h-207z" />
<glyph unicode="C" horiz-adv-x="1202" d="M147 539q0 131 31 266t93.5 256t157.5 216t222 150.5t287 55.5q205 0 356 -82l-73 -152q-55 29 -124 50.5t-159 21.5q-154 0 -265.5 -68.5t-185 -182.5t-109.5 -251t-36 -276q0 -186 95 -294t263 -108q84 0 165 16.5t159 43.5v-160q-80 -29 -160.5 -45t-195.5 -16 q-244 0 -382.5 149.5t-138.5 409.5z" />
<glyph unicode="D" horiz-adv-x="1366" d="M84 0l309 1462h346q264 0 414 -143t150 -440q0 -254 -99.5 -453t-291 -312.5t-468.5 -113.5h-360zM299 158h156q213 0 358 96t221 260t76 367q0 225 -107.5 324.5t-285.5 99.5h-174z" />
<glyph unicode="E" horiz-adv-x="1052" d="M84 0l309 1462h742l-35 -162h-559l-97 -456h523l-31 -160h-524l-113 -522h561l-35 -162h-741z" />
<glyph unicode="F" horiz-adv-x="976" d="M84 0l309 1462h742l-33 -162h-561l-109 -520h524l-34 -162h-525l-131 -618h-182z" />
<glyph unicode="G" horiz-adv-x="1388" d="M147 530q0 201 56.5 374t162 303t250 203t320.5 73q133 0 233.5 -22.5t190.5 -63.5l-70 -160q-76 35 -164 59.5t-192 24.5q-168 0 -302 -100.5t-212 -275.5t-78 -402q0 -113 40 -204t124 -144.5t215 -53.5q78 0 142.5 11.5t109.5 25.5l94 432h-287l35 160h469l-156 -715 q-92 -33 -194.5 -54t-231.5 -21q-260 0 -407.5 145t-147.5 405z" />
<glyph unicode="H" horiz-adv-x="1392" d="M86 0l309 1462h183l-132 -618h644l131 618h180l-309 -1462h-181l144 682h-643l-144 -682h-182z" />
<glyph unicode="I" horiz-adv-x="663" d="M-41 0l21 100l174 41l249 1180l-155 39l20 102h512l-20 -102l-176 -39l-250 -1180l158 -41l-21 -100h-512z" />
<glyph unicode="J" horiz-adv-x="559" d="M-319 -365l6 158q31 -8 67.5 -14t77.5 -6q90 0 159.5 57t96.5 188l307 1444h183l-310 -1464q-45 -207 -156.5 -297t-275.5 -90q-102 0 -155 24z" />
<glyph unicode="K" horiz-adv-x="1150" d="M84 0l309 1462h182l-151 -710l127 135l561 575h221l-635 -643l346 -819h-200l-285 709l-170 -125l-123 -584h-182z" />
<glyph unicode="L" horiz-adv-x="978" d="M84 0l309 1462h182l-276 -1298h561l-35 -164h-741z" />
<glyph unicode="M" horiz-adv-x="1722" d="M82 0l309 1462h258l142 -1194h8l649 1194h281l-304 -1462h-184l184 868q29 133 54.5 242t44.5 174h-4l-705 -1284h-145l-156 1282h-8q-4 -41 -14.5 -109.5t-23.5 -145.5t-28 -148l-186 -879h-172z" />
<glyph unicode="N" horiz-adv-x="1447" d="M82 0l309 1462h195l448 -1208h6q10 74 30 187.5t42 215.5l172 805h174l-309 -1462h-195l-452 1212h-6q-4 -43 -15.5 -112.5t-27 -149.5t-31.5 -155l-168 -795h-172z" />
<glyph unicode="O" horiz-adv-x="1476" d="M147 547q0 188 50.5 358t146.5 300t233.5 205t309.5 75q250 0 388 -153.5t138 -422.5q0 -190 -46 -358t-137 -296t-226.5 -201.5t-313.5 -73.5q-262 0 -402.5 152.5t-140.5 414.5zM342 551q0 -193 94 -301.5t260 -108.5q123 0 219.5 61.5t164 169t103.5 247t36 294.5 q0 195 -92.5 302.5t-252.5 107.5q-123 0 -221 -60.5t-167.5 -166t-106.5 -245.5t-37 -300z" />
<glyph unicode="P" horiz-adv-x="1161" d="M84 0l309 1462h330q238 0 338 -105.5t100 -275.5q0 -248 -163.5 -379t-479.5 -131h-131l-121 -571h-182zM420 725h127q197 0 312.5 85t115.5 265q0 121 -68.5 175.5t-208.5 54.5h-155z" />
<glyph unicode="Q" horiz-adv-x="1476" d="M147 547q0 188 50.5 358t146.5 300t233.5 205t309.5 75q250 0 388 -153.5t138 -422.5q0 -211 -59.5 -394t-173 -314t-277.5 -187l275 -362h-234l-221 330q-8 -2 -16.5 -2h-16.5q-262 0 -402.5 152.5t-140.5 414.5zM342 551q0 -193 94 -301.5t260 -108.5q125 0 222.5 61.5 t164 169t101.5 247t35 294.5q0 195 -92.5 302.5t-252.5 107.5q-123 0 -221 -60.5t-167.5 -166t-106.5 -245.5t-37 -300z" />
<glyph unicode="R" horiz-adv-x="1173" d="M84 0l309 1462h322q450 0 450 -368q0 -160 -83 -277t-281 -172l241 -645h-200l-209 604h-240l-127 -604h-182zM426 760h160q205 0 298 89t93 230q0 125 -69.5 174.5t-209.5 49.5h-155z" />
<glyph unicode="S" horiz-adv-x="1034" d="M39 45v180q61 -33 146 -59.5t196 -26.5q92 0 170 29t125 88t47 154q0 82 -54.5 140t-187.5 134q-78 47 -138 97t-94 117t-34 161q0 135 65.5 230t175 144.5t240.5 49.5q115 0 202 -22.5t165 -63.5l-70 -156q-53 29 -133 54.5t-164 25.5q-125 0 -205.5 -65.5t-80.5 -184.5 q0 -61 22.5 -103t69.5 -76t116 -77q88 -53 155 -104.5t104.5 -119t37.5 -167.5q0 -219 -146 -331.5t-390 -112.5q-106 0 -187 16t-153 49z" />
<glyph unicode="T" horiz-adv-x="1026" d="M184 1300l35 162h987l-32 -162h-402l-276 -1300h-185l275 1300h-402z" />
<glyph unicode="U" horiz-adv-x="1386" d="M162 385q0 35 6 86t18 109l189 882h182l-190 -893q-10 -47 -16.5 -98t-6.5 -84q0 -115 70.5 -180.5t210.5 -65.5q182 0 271 94.5t128 276.5l203 950h182l-205 -964q-33 -160 -103.5 -277t-189.5 -179t-297 -62q-229 0 -340.5 105t-111.5 300z" />
<glyph unicode="V" horiz-adv-x="1130" d="M188 1462h181l92 -925q10 -84 15 -170q4 -61 4 -117q0 -22 -1 -43h4q31 74 70 154.5t88 177.5l475 923h203l-778 -1462h-195z" />
<glyph unicode="W" horiz-adv-x="1753" d="M219 1462h180l29 -891q2 -42 2 -85.5t-2 -88.5q-4 -90 -8 -172h6q29 80 70 183.5t84 193.5l401 860h186l41 -856q6 -96 8 -200q1 -58 2 -108q0 -39 -1 -73h6q29 78 60.5 170t70.5 183l383 884h194l-663 -1462h-187l-45 942q-4 68 -6 144.5t-2 140.5h-6q-20 -61 -47 -125 t-74 -166l-432 -936h-188z" />
<glyph unicode="X" horiz-adv-x="1079" d="M-106 0l595 774l-260 688h185l198 -559l435 559h200l-553 -696l277 -766h-193l-209 633l-475 -633h-200z" />
<glyph unicode="Y" horiz-adv-x="1042" d="M188 1462h183l174 -733l479 733h207l-627 -919l-112 -543h-185l119 549z" />
<glyph unicode="Z" horiz-adv-x="1087" d="M-20 0l28 143l912 1155h-646l35 164h865l-27 -145l-911 -1153h686l-33 -164h-909z" />
<glyph unicode="[" horiz-adv-x="593" d="M-18 -324l380 1786h396l-33 -147h-225l-316 -1491h226l-33 -148h-395z" />
<glyph unicode="\" horiz-adv-x="729" d="M221 1462h164l217 -1462h-164z" />
<glyph unicode="]" horiz-adv-x="593" d="M-147 -324l30 148h226l315 1491h-225l32 147h396l-381 -1786h-393z" />
<glyph unicode="^" horiz-adv-x="1171" d="M78 547l434 926h102l480 -926h-160l-369 735l-327 -735h-160z" />
<glyph unicode="_" horiz-adv-x="808" d="M-188 -324l30 140h813l-30 -140h-813z" />
<glyph unicode="`" horiz-adv-x="569" d="M299 1548v21h193q23 -76 62.5 -155t80.5 -148v-25h-111q-39 39 -83 94.5t-83 112.5t-59 100z" />
<glyph unicode="a" horiz-adv-x="1163" d="M98 354q0 154 40 292t112 243.5t170 167t217 61.5q109 0 176.5 -57t99.5 -133h11l65 170h137l-233 -1098h-143l26 203h-8q-70 -90 -164 -156.5t-209 -66.5q-131 0 -214 95t-83 279zM283 350q0 -111 45 -166t127 -55q76 0 148.5 55.5t132 149.5t89.5 211q16 59 21.5 109.5 t5.5 93.5q0 96 -53.5 157.5t-143.5 61.5q-80 0 -147.5 -50.5t-118.5 -137.5t-78.5 -197.5t-27.5 -231.5z" />
<glyph unicode="b" horiz-adv-x="1185" d="M57 0l330 1556h180l-78 -368q-14 -70 -31.5 -136.5t-29.5 -110.5t-14 -48h8q74 90 161 156.5t201 66.5q135 0 218 -94t83 -279q0 -150 -36.5 -287t-106.5 -244.5t-168 -169.5t-223 -62q-111 0 -179.5 56t-101.5 132h-10l-67 -168h-136zM328 350q0 -98 51.5 -159.5 t157.5 -61.5q82 0 149.5 52t115.5 140.5t73.5 199t25.5 224.5q0 221 -174 222q-68 0 -138.5 -50.5t-130 -137.5t-95 -197.5t-35.5 -231.5z" />
<glyph unicode="c" horiz-adv-x="927" d="M98 389q0 147 40 279.5t115 232.5t181.5 158.5t237.5 58.5q72 0 143.5 -14t128.5 -39l-51 -150q-41 18 -97.5 35t-121.5 17q-117 0 -205 -79t-137 -210t-49 -287q0 -125 64.5 -193.5t176.5 -68.5q72 0 136.5 20.5t127.5 47.5v-152q-57 -29 -127.5 -47t-154.5 -18 q-182 0 -295 102t-113 307z" />
<glyph unicode="d" horiz-adv-x="1185" d="M98 354q0 152 37 288t107.5 243.5t170 169t224.5 61.5q111 0 177.5 -56t98.5 -132h11l19 133t26 137l75 358h179l-330 -1556h-148l23 203h-8q-74 -92 -162 -157.5t-203 -65.5q-131 0 -214 94t-83 280zM283 350q0 -221 174 -221q68 0 137.5 50t128.5 136t95 197t36 233 q0 98 -48 160t-157 62q-82 0 -148.5 -52.5t-115.5 -140.5t-75.5 -198.5t-26.5 -225.5z" />
<glyph unicode="e" horiz-adv-x="1021" d="M98 393q0 131 38 259t109.5 233.5t173 169t228.5 63.5q156 0 235 -67.5t79 -188.5q0 -106 -67 -194t-208 -140.5t-367 -52.5h-34q-2 -18 -3 -38.5t-1 -37.5q0 -125 61 -197.5t186 -72.5q78 0 147.5 22.5t151.5 61.5v-154q-78 -35 -152.5 -57t-178.5 -22 q-190 0 -294 111.5t-104 301.5zM311 621h15q123 0 227 21.5t167.5 71.5t63.5 134q0 53 -35.5 87t-111.5 34q-98 0 -189.5 -91.5t-136.5 -256.5z" />
<glyph unicode="f" horiz-adv-x="651" d="M-229 -319q29 -8 55.5 -15.5t58.5 -7.5q74 0 115 60.5t66 172.5l225 1070h-191l15 75l204 68l23 98q33 141 81 220t119.5 112t172.5 33q51 0 105 -11.5t87 -27.5l-47 -137q-29 10 -62.5 19t-74.5 9q-80 0 -126 -45t-75 -172l-24 -104h235l-26 -137h-236l-229 -1090 q-37 -170 -115 -266.5t-225 -96.5q-39 0 -72 6.5t-59 14.5v152z" />
<glyph unicode="g" horiz-adv-x="1185" d="M51 -256q53 -33 144.5 -59.5t179.5 -26.5q127 0 209 61.5t114 204.5l19 78q10 47 25.5 104.5t25.5 96.5h-8q-70 -90 -159 -156.5t-204 -66.5q-133 0 -216 95t-83 279q0 150 37 287t107.5 244.5t170 170t224.5 62.5q111 0 178.5 -57t99.5 -133h9l67 170h137l-249 -1161 q-49 -231 -175 -330t-323 -99q-100 0 -185 19.5t-145 50.5v166zM283 350q0 -221 174 -221q70 0 139.5 51t127.5 138.5t93 198t35 228.5q0 98 -46 160t-155 62q-82 0 -149.5 -52.5t-116.5 -140.5t-75.5 -198.5t-26.5 -225.5z" />
<glyph unicode="h" horiz-adv-x="1185" d="M57 0l330 1556h180l-88 -403q-12 -61 -30.5 -128t-34.5 -132h10q39 51 92 102.5t122 86t157 34.5q127 0 201.5 -70.5t74.5 -209.5q0 -39 -6 -80t-16 -88l-144 -668h-180l145 688q18 92 19 135q0 68 -34 106t-110 38q-70 0 -150.5 -48.5t-149 -157t-107.5 -288.5 l-100 -473h-181z" />
<glyph unicode="i" horiz-adv-x="528" d="M57 0l234 1098h180l-233 -1098h-181zM338 1376q0 53 31.5 92t89.5 39q94 0 94 -92q0 -63 -37 -99t-80 -36t-70.5 25.5t-27.5 70.5z" />
<glyph unicode="j" horiz-adv-x="528" d="M-258 -319q25 -8 55.5 -15.5t63.5 -7.5q125 0 168 201l262 1239h178l-266 -1256q-33 -154 -107.5 -244t-226.5 -90q-76 0 -127 21v152zM338 1376q0 53 31.5 92t89.5 39q92 0 92 -92q0 -63 -37 -99t-80 -36q-41 0 -68.5 25.5t-27.5 70.5z" />
<glyph unicode="k" horiz-adv-x="1013" d="M55 0l330 1556h182l-133 -618q-35 -164 -60.5 -253t-35.5 -118h4l520 531h213l-471 -471l293 -627h-199l-231 514l-148 -117l-81 -397h-183z" />
<glyph unicode="l" horiz-adv-x="528" d="M55 0l332 1556h180l-331 -1556h-181z" />
<glyph unicode="m" horiz-adv-x="1792" d="M57 0l234 1098h147l-22 -203h10q37 51 87 102.5t116.5 86t150.5 34.5q113 0 173.5 -64.5t72.5 -179.5h8q41 61 97.5 117t126 91.5t153.5 35.5q127 0 196.5 -69.5t69.5 -200.5q0 -49 -6 -91t-16 -89l-142 -668h-182l148 688q10 47 14 80t4 63q0 61 -33.5 98.5t-105.5 37.5 q-66 0 -140.5 -49.5t-139 -152.5t-99.5 -269l-105 -496h-180l146 688q18 92 18 135q0 68 -30.5 106t-102.5 38q-66 0 -141.5 -48.5t-141 -157t-104.5 -288.5l-100 -473h-181z" />
<glyph unicode="n" horiz-adv-x="1185" d="M49 0l236 1104h159l-22 -203h2q39 51 91 102.5t122 86t158 34.5q133 0 207.5 -72.5t74.5 -203.5q0 -47 -7 -96.5t-15 -85.5l-146 -666h-192l147 690q10 47 15.5 79t5.5 60q0 131 -140 132q-68 0 -146.5 -47.5t-147 -154t-107.5 -286.5l-102 -473h-193z" />
<glyph unicode="o" horiz-adv-x="1153" d="M98 406q0 127 35 251.5t103.5 227t172 165t238.5 62.5q193 0 301.5 -113.5t108.5 -310.5q0 -125 -35 -250t-103.5 -227t-171 -164.5t-239.5 -62.5q-190 0 -300 113.5t-110 308.5zM281 399q0 -127 62 -196.5t175 -69.5q98 0 178 68.5t128 197.5t48 310q0 61 -21.5 119.5 t-70.5 96.5t-131 38q-113 0 -195.5 -77t-127.5 -205t-45 -282z" />
<glyph unicode="p" horiz-adv-x="1185" d="M-45 -492l336 1590h147l-24 -205h8q72 90 162 156.5t204 66.5q133 0 215 -94t82 -281q0 -150 -36.5 -287t-106.5 -244.5t-169 -168.5t-222 -61q-111 0 -178.5 56t-102.5 132h-10q-2 -33 -10 -91.5t-17 -94.5l-100 -474h-178zM328 350q0 -98 51.5 -159.5t157.5 -61.5 q82 0 149.5 52t115.5 140.5t73.5 199t25.5 224.5q0 221 -174 222q-68 0 -138.5 -50.5t-130 -136.5t-95 -196.5t-35.5 -233.5z" />
<glyph unicode="q" horiz-adv-x="1185" d="M98 354q0 150 37 287t107.5 244.5t171 170t225.5 62.5q109 0 175.5 -57t98.5 -133h11l67 170h135l-338 -1590h-178l99 467q10 39 27.5 108t31.5 120h-8q-70 -90 -159 -156.5t-204 -66.5q-133 0 -216 94t-83 280zM283 350q0 -221 174 -221q68 0 137.5 51t127.5 138.5 t94 198t36 228.5q0 90 -47 156t-154 66q-82 0 -149.5 -52.5t-116.5 -140.5t-75.5 -198.5t-26.5 -225.5z" />
<glyph unicode="r" horiz-adv-x="815" d="M57 0l234 1098h147l-22 -203h10q43 57 90 107.5t106.5 83t137.5 32.5q29 0 60.5 -3t58.5 -11l-39 -162q-55 12 -105 12q-102 0 -182 -67.5t-133 -172t-76 -212.5l-106 -502h-181z" />
<glyph unicode="s" horiz-adv-x="884" d="M10 49v166q53 -33 134 -60.5t167 -27.5q121 0 184.5 48t63.5 124q0 59 -39 99t-145 100q-117 66 -176.5 135t-59.5 174q0 139 101.5 225t271.5 86q100 0 185 -23.5t147 -52.5l-58 -143q-53 25 -118.5 46.5t-155.5 21.5q-88 0 -140.5 -42t-52.5 -108q0 -53 36 -93t145 -99 q70 -41 125 -82t86.5 -94.5t31.5 -131.5q0 -166 -115.5 -251.5t-310.5 -85.5q-100 0 -174.5 19t-132.5 50z" />
<glyph unicode="t" horiz-adv-x="679" d="M90 961l16 81l185 78l127 228h106l-55 -250h276l-28 -137h-275l-127 -599q-6 -27 -12 -60.5t-6 -61.5q0 -47 25.5 -80t83.5 -33q37 0 71.5 7t73.5 20v-138q-25 -12 -76 -24t-96 -12q-111 0 -186.5 53t-75.5 186q0 66 18 146l125 596h-170z" />
<glyph unicode="u" horiz-adv-x="1185" d="M113 252q0 47 7 89t15 87l144 670h182l-148 -690q-18 -88 -18 -138q0 -66 33.5 -103.5t109.5 -37.5q70 0 151 49t150.5 157.5t108.5 289.5l100 473h178l-233 -1098h-148l23 203h-10q-39 -49 -91.5 -101.5t-121 -87t-158.5 -34.5q-125 0 -199.5 69.5t-74.5 202.5z" />
<glyph unicode="v" horiz-adv-x="956" d="M98 1098h181l61 -611q6 -53 11 -124.5t8 -134t3 -91.5h7q23 51 53.5 116.5t62 131.5t54.5 109l323 604h193l-594 -1098h-236z" />
<glyph unicode="w" horiz-adv-x="1480" d="M117 1098h176l16 -586q2 -56 2 -107t-2 -97q-4 -91 -8 -150h8q16 43 39 101t48.5 116.5t45.5 101.5l289 621h195l35 -588q2 -76 4 -175q1 -33 1 -64q0 -61 -3 -113h8q27 78 67.5 183t89.5 218l240 539h191l-508 -1098h-217l-31 594q-3 66 -3 127v31q1 76 1 172h-8 q-27 -76 -54.5 -140.5t-76.5 -169.5l-287 -614h-213z" />
<glyph unicode="x" horiz-adv-x="989" d="M-76 0l475 565l-237 533h182l170 -406l322 406h208l-456 -541l252 -557h-183l-186 426l-338 -426h-209z" />
<glyph unicode="y" horiz-adv-x="956" d="M-193 -326q29 -8 62 -13t70 -5q84 0 142 51t112 150l71 127l-166 1114h181l71 -543q10 -66 15.5 -144.5t8.5 -149.5t3 -114h6q14 33 42 98.5t60.5 135.5t57.5 115l319 602h193l-697 -1282q-82 -154 -173 -231t-236 -77q-49 0 -81 6.5t-61 14.5v145z" />
<glyph unicode="z" horiz-adv-x="911" d="M-31 0l25 123l682 840h-471l28 135h666l-29 -146l-669 -817h522l-27 -135h-727z" />
<glyph unicode="{" horiz-adv-x="716" d="M23 510l34 149q119 0 190.5 43t92.5 148l68 321q35 162 119.5 226.5t254.5 64.5h37l-31 -149q-90 0 -141 -31t-74 -127l-71 -319q-23 -104 -81.5 -172t-178.5 -89v-4q80 -20 116.5 -76.5t36.5 -136.5q0 -27 -5 -61.5t-13 -67.5l-45 -209q-6 -27 -10.5 -50t-4.5 -44 q0 -59 42 -79.5t112 -20.5v-150h-27q-143 0 -220 54.5t-77 171.5q0 33 6.5 66.5t14.5 72.5l49 215q6 33 10 59.5t4 51.5q0 143 -208 143z" />
<glyph unicode="|" d="M532 -494v2050h148v-2050h-148z" />
<glyph unicode="}" horiz-adv-x="716" d="M-76 -174q98 0 155.5 30.5t78.5 127.5l71 319q23 104 82.5 171t177.5 87v6q-80 23 -115.5 77t-35.5 134q0 29 5 62.5t13 66.5l47 211q6 27 10.5 50.5t4.5 43.5q0 59 -47 80t-131 21l30 149h13q147 0 224 -54t77 -171q0 -33 -5.5 -66.5t-15.5 -72.5l-49 -217 q-6 -33 -11 -58.5t-5 -50.5q0 -143 209 -143l-33 -150q-119 0 -189.5 -43t-93.5 -147l-67 -322q-25 -115 -72 -178t-123 -88t-190 -25h-15v150z" />
<glyph unicode="~" horiz-adv-x="1171" d="M143 588v160q98 109 246 108q59 0 117.5 -12.5t152.5 -52.5q74 -33 122 -44.5t91 -11.5q59 0 123 35t113 86v-158q-100 -111 -246 -110q-57 0 -117.5 13t-152.5 52q-74 33 -122 44.5t-93 11.5q-57 0 -120.5 -35t-113.5 -86z" />
<glyph unicode="&#xa1;" horiz-adv-x="534" d="M-20 -373l274 1051h119l-174 -1051h-219zM246 948q0 68 38 119t117 51q47 0 74 -28.5t27 -81.5q0 -59 -36 -112.5t-114 -53.5q-106 0 -106 106z" />
<glyph unicode="&#xa2;" d="M219 590q0 184 61.5 339.5t175 259t267.5 126.5l33 168h129l-37 -168q125 -10 219 -49l-51 -150q-41 18 -97.5 34.5t-121.5 16.5q-117 0 -206 -78.5t-138.5 -209.5t-49.5 -287q0 -125 66 -194.5t178 -69.5q72 0 136.5 20.5t125.5 48.5v-153q-55 -27 -125.5 -45.5 t-160.5 -20.5l-41 -198h-131l43 215q-125 33 -200 132t-75 263z" />
<glyph unicode="&#xa3;" d="M-23 0l29 152q90 20 160 85.5t98 200.5l45 209h-200l28 135h201l72 342q43 197 160.5 277t273.5 80q109 0 193.5 -25.5t146.5 -60.5l-70 -142q-49 27 -118.5 52.5t-155.5 25.5q-82 0 -155 -46t-101 -185l-68 -318h365l-29 -135h-365l-45 -207q-27 -125 -79 -184t-113 -92 h719l-35 -164h-957z" />
<glyph unicode="&#xa4;" d="M164 1065l96 98l127 -129q47 31 101.5 49.5t113.5 18.5t113.5 -18.5t99.5 -49.5l129 129l98 -96l-129 -129q29 -45 48.5 -100.5t19.5 -114.5q0 -61 -18.5 -115.5t-49.5 -99.5l127 -127l-96 -96l-129 127q-45 -31 -99 -48.5t-114 -17.5q-59 0 -114.5 18.5t-100.5 49.5 l-127 -127l-94 96l127 127q-33 45 -50.5 98.5t-17.5 114.5q0 117 68 213zM362 723q0 -100 70 -170t170 -70q102 0 174 70t72 170q0 102 -71.5 173t-174.5 71q-100 0 -170 -71t-70 -173z" />
<glyph unicode="&#xa5;" d="M123 262l31 137h286l33 158h-289l31 137h223l-202 768h176l172 -733l481 733h197l-529 -768h228l-29 -137h-293l-33 -158h293l-29 -137h-290l-58 -262h-166l56 262h-289z" />
<glyph unicode="&#xa6;" d="M532 287h148v-781h-148v781zM532 776v780h148v-780h-148z" />
<glyph unicode="&#xa7;" horiz-adv-x="995" d="M55 53v154q53 -29 134 -54.5t165 -25.5q129 0 198 44t69 126q0 47 -44.5 85t-154.5 89q-113 51 -181.5 117.5t-68.5 181.5q0 117 69.5 189.5t164.5 115.5q-51 33 -84 82t-33 121q0 121 100 205t287 84q96 0 178 -18.5t145 -51.5l-55 -129q-68 29 -133.5 45.5t-134.5 16.5 q-51 0 -101.5 -14.5t-82 -46.5t-31.5 -85t45 -89t151 -83q109 -49 179.5 -113.5t70.5 -175.5q0 -104 -64.5 -185t-164.5 -132q47 -31 80 -76t33 -115q0 -143 -110 -234t-327 -91q-102 0 -177 19.5t-122 43.5zM332 791q0 -70 52 -116.5t191 -107.5q66 35 117 95.5t51 136.5 q0 63 -52 109t-177 98q-63 -20 -122.5 -76t-59.5 -139z" />
<glyph unicode="&#xa8;" horiz-adv-x="1134" d="M451 1378q0 47 28.5 82t79.5 35q43 0 62.5 -22.5t19.5 -59.5q0 -57 -31.5 -89t-70.5 -32t-63.5 22.5t-24.5 63.5zM819 1378q0 47 29 82t80 35q41 0 61.5 -22.5t20.5 -59.5q0 -57 -33 -89t-72 -32q-37 0 -61.5 22.5t-24.5 63.5z" />
<glyph unicode="&#xa9;" horiz-adv-x="1703" d="M100 731q0 164 55.5 301t157 238.5t238.5 157t301 55.5q156 0 292 -55.5t239.5 -157t162 -238.5t58.5 -301t-55.5 -301t-157 -238.5t-238.5 -156.5t-301 -55t-301 55t-238.5 156.5t-157 238.5t-55.5 301zM215 731q0 -133 47 -249.5t132 -205t202 -138.5t256 -50 q131 0 245.5 47t203 134t137.5 204t49 258q0 133 -47 250t-132 205t-201 138t-255 50q-184 0 -328.5 -83t-226.5 -227t-82 -333zM479 731q0 133 47 236.5t139.5 162t225.5 58.5t252 -62l-60 -125q-102 53 -190 54q-121 0 -187.5 -86t-66.5 -238q0 -156 58.5 -240.5 t193.5 -84.5q47 0 105.5 13t109.5 34v-131q-49 -20 -100 -35t-123 -15q-203 0 -303.5 126t-100.5 333z" />
<glyph unicode="&#xaa;" horiz-adv-x="694" d="M168 1014q0 117 38 223t111.5 174t180.5 68q66 0 101.5 -31t51.5 -72h8l37 90h92l-141 -669h-96l14 114h-6q-39 -53 -88 -90t-123 -37q-76 0 -128 58.5t-52 171.5zM289 1028q0 -70 26.5 -102.5t71.5 -32.5q57 0 99 36t71 90t43 114.5t14 109.5q0 59 -27.5 94t-84.5 35 q-66 0 -114 -51t-73.5 -130t-25.5 -163z" />
<glyph unicode="&#xab;" horiz-adv-x="976" d="M86 555v27l393 383l88 -88l-295 -328l168 -385l-125 -53zM489 514v29l371 411l96 -77l-282 -363l155 -350l-124 -53z" />
<glyph unicode="&#xac;" horiz-adv-x="1171" d="M143 649v146h963v-533h-145v387h-818z" />
<glyph unicode="&#xad;" horiz-adv-x="641" d="M53 465l37 166h483l-36 -166h-484z" />
<glyph unicode="&#xae;" horiz-adv-x="1703" d="M100 731q0 164 55.5 301t157 238.5t238.5 157t301 55.5q156 0 292 -55.5t239.5 -157t162 -238.5t58.5 -301t-55.5 -301t-157 -238.5t-238.5 -156.5t-301 -55t-301 55t-238.5 156.5t-157 238.5t-55.5 301zM215 731q0 -133 47 -249.5t132 -205t202 -138.5t256 -50 q131 0 245.5 47t203 134t137.5 204t49 258q0 133 -47 250t-132 205t-201 138t-255 50q-184 0 -328.5 -83t-226.5 -227t-82 -333zM571 283v895h263q168 0 245.5 -65.5t77.5 -199.5q0 -96 -49 -152t-111 -81l238 -397h-176l-205 354h-127v-354h-156zM727 764h102q80 0 125 41 t45 104q0 72 -40.5 105t-131.5 33h-100v-283z" />
<glyph unicode="&#xaf;" horiz-adv-x="804" d="M207 1556l33 138h809l-35 -138h-807z" />
<glyph unicode="&#xb0;" horiz-adv-x="876" d="M113 1167q0 139 88 227.5t237 88.5q145 0 235.5 -88t90.5 -228q0 -139 -90.5 -226t-235.5 -87q-147 0 -236 87t-89 226zM246 1167q0 -86 47 -139t147 -53q98 0 144.5 53t46.5 139q0 90 -48 143.5t-143 53.5q-100 0 -147 -53.5t-47 -143.5z" />
<glyph unicode="&#xb1;" horiz-adv-x="1171" d="M143 0v145h965v-145h-965zM143 655v146h408v424h147v-424h408v-146h-408v-422h-147v422h-408z" />
<glyph unicode="&#xb2;" horiz-adv-x="722" d="M145 852l25 113l264 225q123 106 180.5 176t57.5 150q0 51 -30 81.5t-87 30.5q-96 0 -195 -80l-63 97q63 51 132 76.5t151 25.5q86 0 137 -30.5t74.5 -79t23.5 -99.5q0 -68 -23.5 -125t-79 -118.5t-149.5 -139.5l-213 -178h391l-26 -125h-570z" />
<glyph unicode="&#xb3;" horiz-adv-x="722" d="M166 893v133q53 -31 116.5 -51.5t123.5 -20.5q102 0 152 45t50 121q0 131 -172 131h-94l25 113h94q94 0 151.5 40t57.5 109q0 121 -131 117q-53 -2 -99.5 -19.5t-89.5 -47.5l-57 98q47 37 116.5 62.5t155.5 25.5q123 0 184.5 -58.5t61.5 -148.5q0 -92 -55.5 -148.5 t-153.5 -82.5v-8q72 -16 110 -66.5t38 -120.5q0 -119 -85.5 -198.5t-263.5 -79.5q-68 0 -128 15t-107 40z" />
<glyph unicode="&#xb4;" horiz-adv-x="538" d="M236 1241v27q37 39 78.5 92t81.5 108.5t69 100.5h205v-21q-29 -35 -85.5 -94t-120 -117.5t-116.5 -95.5h-112z" />
<glyph unicode="&#xb5;" horiz-adv-x="1198" d="M-45 -492l336 1590h180l-145 -690q-18 -88 -19 -134q0 -70 34 -107.5t110 -37.5q70 0 148.5 48t149 156.5t109.5 287.5l105 477h176l-234 -1098h-147l22 203h-10q-39 -51 -91 -103.5t-118.5 -86t-152.5 -33.5q-113 0 -162 94h-8q-4 -29 -12.5 -78t-15.5 -96t-13 -76 l-66 -316h-176z" />
<glyph unicode="&#xb6;" horiz-adv-x="1341" d="M195 1042q0 197 56 308.5t157.5 158.5t236.5 47h561v-1816h-119v1657h-208v-1657h-119v819q-61 -18 -146 -18q-127 0 -221 47t-146 157.5t-52 296.5z" />
<glyph unicode="&#xb7;" horiz-adv-x="524" d="M166 690q0 68 38 119t120 51q45 0 72.5 -27.5t27.5 -81.5q0 -63 -37 -115.5t-115 -52.5q-106 0 -106 107z" />
<glyph unicode="&#xb8;" horiz-adv-x="419" d="M-174 -375q20 -4 39.5 -6t34.5 -2q168 0 168 109q0 45 -38 65.5t-100 28.5l99 180h114l-59 -117q47 -14 89 -48t42 -109q0 -92 -76 -155t-221 -63q-55 0 -92 11v106z" />
<glyph unicode="&#xb9;" horiz-adv-x="722" d="M303 1538l291 188h127l-186 -876h-146l109 514q10 51 27.5 115.5t29.5 107.5q-16 -14 -39.5 -35.5t-48.5 -40.5l-107 -69z" />
<glyph unicode="&#xba;" horiz-adv-x="694" d="M176 1053q0 106 38 203.5t112.5 160t187.5 62.5q129 0 187.5 -74t58.5 -188q0 -104 -35 -204t-107.5 -164.5t-191.5 -64.5q-106 0 -178 67t-72 202zM297 1057q0 -82 36.5 -124t102.5 -42q70 0 115 46t67.5 119.5t22.5 153.5q0 84 -36 122t-95 38q-72 0 -119 -44 t-70.5 -115.5t-23.5 -153.5z" />
<glyph unicode="&#xbb;" horiz-adv-x="976" d="M20 199l283 358l-156 354l125 54l215 -406v-31l-370 -405zM410 199l295 325l-168 387l125 54l229 -447v-29l-393 -378z" />
<glyph unicode="&#xbc;" horiz-adv-x="1499" d="M176 0l1086 1462h162l-1086 -1462h-162zM240 1274l291 188h127l-186 -876h-146l109 514q10 51 27.5 115.5t29.5 107.5q-16 -14 -39.5 -35.5t-48.5 -40.5l-107 -69zM775 201l22 106l481 578h146l-121 -564h125l-23 -120h-129l-41 -199h-137l41 199h-364zM945 321h221 l41 189q12 53 22 101t25 98q-8 -14 -27.5 -42t-42 -56.5t-39.5 -47.5z" />
<glyph unicode="&#xbd;" horiz-adv-x="1648" d="M180 0l1086 1462h162l-1086 -1462h-162zM240 1274l291 188h127l-186 -876h-146l109 514q10 51 27.5 115.5t29.5 107.5q-16 -14 -39.5 -35.5t-48.5 -40.5l-107 -69zM890 2l25 113l264 225q123 106 180.5 176t57.5 150q0 51 -30 81.5t-87 30.5q-96 0 -195 -80l-63 97 q63 51 132 76.5t151 25.5q86 0 137 -30.5t74.5 -79t23.5 -99.5q0 -68 -23.5 -125t-79 -118.5t-149.5 -139.5l-213 -178h391l-26 -125h-570z" />
<glyph unicode="&#xbe;" horiz-adv-x="1624" d="M113 627v133q53 -31 116.5 -51.5t123.5 -20.5q102 0 152 45t50 121q0 131 -172 131h-94l25 113h94q94 0 151.5 40t57.5 109q0 121 -131 117q-53 -2 -99.5 -19.5t-89.5 -47.5l-57 98q47 37 116.5 62.5t155.5 25.5q123 0 184.5 -58.5t61.5 -148.5q0 -92 -55.5 -148.5 t-153.5 -82.5v-8q72 -16 110 -66.5t38 -120.5q0 -119 -85.5 -198.5t-263.5 -79.5q-68 0 -128 15t-107 40zM307 0l1086 1462h162l-1086 -1462h-162zM899 199l22 106l481 578h146l-121 -564h125l-23 -120h-129l-41 -199h-137l41 199h-364zM1069 319h221l41 189q12 53 22 101 t25 98q-8 -14 -27.5 -42t-42 -56.5t-39.5 -47.5z" />
<glyph unicode="&#xbf;" horiz-adv-x="880" d="M-43 -74q0 139 74.5 240.5t218.5 208.5q80 59 124 99t67.5 86t39.5 116h146q-14 -88 -42 -153.5t-75 -121t-123 -114.5q-66 -49 -122 -97.5t-91 -105.5t-35 -135q0 -88 49.5 -138.5t143.5 -50.5q78 0 152.5 26t142.5 58l65 -137q-82 -45 -183 -73.5t-198 -28.5 q-162 0 -258 79.5t-96 241.5zM471 948q0 63 38 115.5t114 52.5q106 0 106 -106q0 -68 -38 -119t-120 -51q-45 0 -72.5 27.5t-27.5 80.5z" />
<glyph unicode="&#xc0;" horiz-adv-x="1150" d="M-117 0l795 1462h192l181 -1462h-181l-55 455h-493l-238 -455h-201zM410 618h387l-33 308q-8 78 -15.5 172t-9.5 166h-6q-33 -78 -76 -167t-90 -179zM582 1913v21h193q23 -76 62.5 -155t80.5 -148v-25h-111q-39 39 -83 94.5t-83 112.5t-59 100z" />
<glyph unicode="&#xc1;" horiz-adv-x="1150" d="M-117 0l795 1462h192l181 -1462h-181l-55 455h-493l-238 -455h-201zM410 618h387l-33 308q-8 78 -15.5 172t-9.5 166h-6q-33 -78 -76 -167t-90 -179zM693 1606v27q37 39 78.5 92t81.5 108.5t69 100.5h205v-21q-29 -35 -85.5 -94t-120 -117.5t-116.5 -95.5h-112z" />
<glyph unicode="&#xc2;" horiz-adv-x="1150" d="M-117 0l795 1462h192l181 -1462h-181l-55 455h-493l-238 -455h-201zM410 618h387l-33 308q-8 78 -15.5 172t-9.5 166h-6q-33 -78 -76 -167t-90 -179zM465 1606v27q35 33 92 86t111.5 111.5t82.5 103.5h174q31 -80 82 -161t90 -140v-27h-112q-37 33 -79 82t-83 104 q-61 -55 -123.5 -103t-116.5 -83h-118z" />
<glyph unicode="&#xc3;" horiz-adv-x="1150" d="M-117 0l795 1462h192l181 -1462h-181l-55 455h-493l-238 -455h-201zM410 618h387l-33 308q-8 78 -15.5 172t-9.5 166h-6q-33 -78 -76 -167t-90 -179zM452 1606q29 127 88.5 194.5t147.5 67.5q59 0 110.5 -27.5t94.5 -56t78 -28.5q45 0 69.5 26.5t48.5 87.5h109 q-33 -127 -92.5 -194.5t-147.5 -67.5q-53 0 -102 28.5t-93 56.5t-89 28q-43 0 -68 -29t-47 -86h-107z" />
<glyph unicode="&#xc4;" horiz-adv-x="1150" d="M-117 0l795 1462h192l181 -1462h-181l-55 455h-493l-238 -455h-201zM410 618h387l-33 308q-8 78 -15.5 172t-9.5 166h-6q-33 -78 -76 -167t-90 -179zM543 1743q0 47 28.5 82t79.5 35q43 0 62.5 -22.5t19.5 -59.5q0 -57 -31.5 -89t-70.5 -32t-63.5 22.5t-24.5 63.5z M911 1743q0 47 29 82t80 35q41 0 61.5 -22.5t20.5 -59.5q0 -57 -33 -89t-72 -32q-37 0 -61.5 22.5t-24.5 63.5z" />
<glyph unicode="&#xc5;" horiz-adv-x="1150" d="M-117 0l795 1462h192l181 -1462h-181l-55 455h-493l-238 -455h-201zM410 618h387l-33 308q-8 78 -15.5 172t-9.5 166h-6q-33 -78 -76 -167t-90 -179zM590 1821q0 102 65.5 157.5t155.5 55.5q98 0 160.5 -55t62.5 -156q0 -104 -63.5 -160.5t-159.5 -56.5 q-98 0 -159.5 56.5t-61.5 158.5zM698 1821q0 -51 30 -82t83 -31q51 0 82.5 31t31.5 82q0 53 -31.5 83t-82.5 30q-47 0 -80 -30t-33 -83z" />
<glyph unicode="&#xc6;" horiz-adv-x="1687" d="M-119 0l936 1462h952l-32 -162h-561l-99 -456h525l-31 -160h-524l-111 -522h559l-35 -162h-743l96 455h-438l-285 -455h-209zM479 618h367l145 682h-84z" />
<glyph unicode="&#xc7;" horiz-adv-x="1202" d="M147 539q0 131 31 266t93.5 256t157.5 216t222 150.5t287 55.5q205 0 356 -82l-73 -152q-55 29 -124 50.5t-159 21.5q-154 0 -265.5 -68.5t-185 -182.5t-109.5 -251t-36 -276q0 -186 95 -294t263 -108q84 0 165 16.5t159 43.5v-160q-80 -29 -160.5 -45t-195.5 -16 q-244 0 -382.5 149.5t-138.5 409.5zM387 -375q20 -4 39.5 -6t34.5 -2q168 0 168 109q0 45 -38 65.5t-100 28.5l99 180h114l-59 -117q47 -14 89 -48t42 -109q0 -92 -76 -155t-221 -63q-55 0 -92 11v106z" />
<glyph unicode="&#xc8;" horiz-adv-x="1052" d="M84 0l309 1462h742l-35 -162h-559l-97 -456h523l-31 -160h-524l-113 -522h561l-35 -162h-741zM569 1913v21h193q23 -76 62.5 -155t80.5 -148v-25h-111q-39 39 -83 94.5t-83 112.5t-59 100z" />
<glyph unicode="&#xc9;" horiz-adv-x="1052" d="M84 0l309 1462h742l-35 -162h-559l-97 -456h523l-31 -160h-524l-113 -522h561l-35 -162h-741zM680 1606v27q37 39 78.5 92t81.5 108.5t69 100.5h205v-21q-29 -35 -85.5 -94t-120 -117.5t-116.5 -95.5h-112z" />
<glyph unicode="&#xca;" horiz-adv-x="1052" d="M84 0l309 1462h742l-35 -162h-559l-97 -456h523l-31 -160h-524l-113 -522h561l-35 -162h-741zM453 1606v27q35 33 92 86t111.5 111.5t82.5 103.5h174q31 -80 82 -161t90 -140v-27h-112q-37 33 -79 82t-83 104q-61 -55 -123.5 -103t-116.5 -83h-118z" />
<glyph unicode="&#xcb;" horiz-adv-x="1052" d="M84 0l309 1462h742l-35 -162h-559l-97 -456h523l-31 -160h-524l-113 -522h561l-35 -162h-741zM531 1743q0 47 28.5 82t79.5 35q43 0 62.5 -22.5t19.5 -59.5q0 -57 -31.5 -89t-70.5 -32t-63.5 22.5t-24.5 63.5zM899 1743q0 47 29 82t80 35q41 0 61.5 -22.5t20.5 -59.5 q0 -57 -33 -89t-72 -32q-37 0 -61.5 22.5t-24.5 63.5z" />
<glyph unicode="&#xcc;" horiz-adv-x="663" d="M-41 0l21 100l174 41l249 1180l-155 39l20 102h512l-20 -102l-176 -39l-250 -1180l158 -41l-21 -100h-512zM338 1913v21h193q23 -76 62.5 -155t80.5 -148v-25h-111q-39 39 -83 94.5t-83 112.5t-59 100z" />
<glyph unicode="&#xcd;" horiz-adv-x="663" d="M-41 0l21 100l174 41l249 1180l-155 39l20 102h512l-20 -102l-176 -39l-250 -1180l158 -41l-21 -100h-512zM449 1606v27q37 39 78.5 92t81.5 108.5t69 100.5h205v-21q-29 -35 -85.5 -94t-120 -117.5t-116.5 -95.5h-112z" />
<glyph unicode="&#xce;" horiz-adv-x="663" d="M-41 0l21 100l174 41l249 1180l-155 39l20 102h512l-20 -102l-176 -39l-250 -1180l158 -41l-21 -100h-512zM222 1606v27q35 33 92 86t111.5 111.5t82.5 103.5h174q31 -80 82 -161t90 -140v-27h-112q-37 33 -79 82t-83 104q-61 -55 -123.5 -103t-116.5 -83h-118z" />
<glyph unicode="&#xcf;" horiz-adv-x="663" d="M-41 0l21 100l174 41l249 1180l-155 39l20 102h512l-20 -102l-176 -39l-250 -1180l158 -41l-21 -100h-512zM299 1743q0 47 28.5 82t79.5 35q43 0 62.5 -22.5t19.5 -59.5q0 -57 -31.5 -89t-70.5 -32t-63.5 22.5t-24.5 63.5zM667 1743q0 47 29 82t80 35q41 0 61.5 -22.5 t20.5 -59.5q0 -57 -33 -89t-72 -32q-37 0 -61.5 22.5t-24.5 63.5z" />
<glyph unicode="&#xd0;" horiz-adv-x="1366" d="M68 645l34 158h152l139 659h346q264 0 414 -143t150 -440q0 -254 -99.5 -453t-291 -312.5t-468.5 -113.5h-360l137 645h-153zM299 158h156q213 0 358 96t221 260t76 367q0 225 -107.5 324.5t-285.5 99.5h-174l-107 -502h322l-35 -158h-320z" />
<glyph unicode="&#xd1;" horiz-adv-x="1447" d="M82 0l309 1462h195l448 -1208h6q10 74 30 187.5t42 215.5l172 805h174l-309 -1462h-195l-452 1212h-6q-4 -43 -15.5 -112.5t-27 -149.5t-31.5 -155l-168 -795h-172zM612 1606q29 127 88.5 194.5t147.5 67.5q59 0 110.5 -27.5t94.5 -56t78 -28.5q45 0 69.5 26.5t48.5 87.5 h109q-33 -127 -92.5 -194.5t-147.5 -67.5q-53 0 -102 28.5t-93 56.5t-89 28q-43 0 -68 -29t-47 -86h-107z" />
<glyph unicode="&#xd2;" horiz-adv-x="1476" d="M147 547q0 188 50.5 358t146.5 300t233.5 205t309.5 75q250 0 388 -153.5t138 -422.5q0 -190 -46 -358t-137 -296t-226.5 -201.5t-313.5 -73.5q-262 0 -402.5 152.5t-140.5 414.5zM342 551q0 -193 94 -301.5t260 -108.5q123 0 219.5 61.5t164 169t103.5 247t36 294.5 q0 195 -92.5 302.5t-252.5 107.5q-123 0 -221 -60.5t-167.5 -166t-106.5 -245.5t-37 -300zM745 1913v21h193q23 -76 62.5 -155t80.5 -148v-25h-111q-39 39 -83 94.5t-83 112.5t-59 100z" />
<glyph unicode="&#xd3;" horiz-adv-x="1476" d="M147 547q0 188 50.5 358t146.5 300t233.5 205t309.5 75q250 0 388 -153.5t138 -422.5q0 -190 -46 -358t-137 -296t-226.5 -201.5t-313.5 -73.5q-262 0 -402.5 152.5t-140.5 414.5zM342 551q0 -193 94 -301.5t260 -108.5q123 0 219.5 61.5t164 169t103.5 247t36 294.5 q0 195 -92.5 302.5t-252.5 107.5q-123 0 -221 -60.5t-167.5 -166t-106.5 -245.5t-37 -300zM857 1606v27q37 39 78.5 92t81.5 108.5t69 100.5h205v-21q-29 -35 -85.5 -94t-120 -117.5t-116.5 -95.5h-112z" />
<glyph unicode="&#xd4;" horiz-adv-x="1476" d="M147 547q0 188 50.5 358t146.5 300t233.5 205t309.5 75q250 0 388 -153.5t138 -422.5q0 -190 -46 -358t-137 -296t-226.5 -201.5t-313.5 -73.5q-262 0 -402.5 152.5t-140.5 414.5zM342 551q0 -193 94 -301.5t260 -108.5q123 0 219.5 61.5t164 169t103.5 247t36 294.5 q0 195 -92.5 302.5t-252.5 107.5q-123 0 -221 -60.5t-167.5 -166t-106.5 -245.5t-37 -300zM629 1606v27q35 33 92 86t111.5 111.5t82.5 103.5h174q31 -80 82 -161t90 -140v-27h-112q-37 33 -79 82t-83 104q-61 -55 -123.5 -103t-116.5 -83h-118z" />
<glyph unicode="&#xd5;" horiz-adv-x="1476" d="M147 547q0 188 50.5 358t146.5 300t233.5 205t309.5 75q250 0 388 -153.5t138 -422.5q0 -190 -46 -358t-137 -296t-226.5 -201.5t-313.5 -73.5q-262 0 -402.5 152.5t-140.5 414.5zM342 551q0 -193 94 -301.5t260 -108.5q123 0 219.5 61.5t164 169t103.5 247t36 294.5 q0 195 -92.5 302.5t-252.5 107.5q-123 0 -221 -60.5t-167.5 -166t-106.5 -245.5t-37 -300zM616 1606q29 127 88.5 194.5t147.5 67.5q59 0 110.5 -27.5t94.5 -56t78 -28.5q45 0 69.5 26.5t48.5 87.5h109q-33 -127 -92.5 -194.5t-147.5 -67.5q-53 0 -102 28.5t-93 56.5t-89 28 q-43 0 -68 -29t-47 -86h-107z" />
<glyph unicode="&#xd6;" horiz-adv-x="1476" d="M147 547q0 188 50.5 358t146.5 300t233.5 205t309.5 75q250 0 388 -153.5t138 -422.5q0 -190 -46 -358t-137 -296t-226.5 -201.5t-313.5 -73.5q-262 0 -402.5 152.5t-140.5 414.5zM342 551q0 -193 94 -301.5t260 -108.5q123 0 219.5 61.5t164 169t103.5 247t36 294.5 q0 195 -92.5 302.5t-252.5 107.5q-123 0 -221 -60.5t-167.5 -166t-106.5 -245.5t-37 -300zM717 1743q0 47 28.5 82t79.5 35q43 0 62.5 -22.5t19.5 -59.5q0 -57 -31.5 -89t-70.5 -32t-63.5 22.5t-24.5 63.5zM1085 1743q0 47 29 82t80 35q41 0 61.5 -22.5t20.5 -59.5 q0 -57 -33 -89t-72 -32q-37 0 -61.5 22.5t-24.5 63.5z" />
<glyph unicode="&#xd7;" horiz-adv-x="1171" d="M172 1069l107 107l346 -351l350 351l102 -105l-348 -348l346 -348l-102 -105l-350 346l-342 -346l-107 105l346 348z" />
<glyph unicode="&#xd8;" horiz-adv-x="1476" d="M117 10l135 168q-53 72 -79 166t-26 203q0 188 50.5 358t146.5 300t233.5 205t309.5 75q190 0 327 -107l129 162l119 -94l-147 -180q47 -63 72.5 -156.5t25.5 -200.5q0 -190 -46 -358t-137 -296t-226.5 -201.5t-313.5 -73.5q-197 0 -330 94l-127 -158zM340 551 q0 -125 39 -215l723 905q-43 41 -99.5 62.5t-128.5 21.5q-123 0 -221 -60.5t-168.5 -167t-107.5 -246.5t-37 -300zM469 211q41 -33 99 -51.5t128 -18.5q123 0 220.5 61.5t165 169t103.5 247t36 294.5q0 55 -8.5 104.5t-22.5 88.5z" />
<glyph unicode="&#xd9;" horiz-adv-x="1386" d="M162 385q0 35 6 86t18 109l189 882h182l-190 -893q-10 -47 -16.5 -98t-6.5 -84q0 -115 70.5 -180.5t210.5 -65.5q182 0 271 94.5t128 276.5l203 950h182l-205 -964q-33 -160 -103.5 -277t-189.5 -179t-297 -62q-229 0 -340.5 105t-111.5 300zM700 1913v21h193 q23 -76 62.5 -155t80.5 -148v-25h-111q-39 39 -83 94.5t-83 112.5t-59 100z" />
<glyph unicode="&#xda;" horiz-adv-x="1386" d="M162 385q0 35 6 86t18 109l189 882h182l-190 -893q-10 -47 -16.5 -98t-6.5 -84q0 -115 70.5 -180.5t210.5 -65.5q182 0 271 94.5t128 276.5l203 950h182l-205 -964q-33 -160 -103.5 -277t-189.5 -179t-297 -62q-229 0 -340.5 105t-111.5 300zM811 1606v27q37 39 78.5 92 t81.5 108.5t69 100.5h205v-21q-29 -35 -85.5 -94t-120 -117.5t-116.5 -95.5h-112z" />
<glyph unicode="&#xdb;" horiz-adv-x="1386" d="M162 385q0 35 6 86t18 109l189 882h182l-190 -893q-10 -47 -16.5 -98t-6.5 -84q0 -115 70.5 -180.5t210.5 -65.5q182 0 271 94.5t128 276.5l203 950h182l-205 -964q-33 -160 -103.5 -277t-189.5 -179t-297 -62q-229 0 -340.5 105t-111.5 300zM584 1606v27q35 33 92 86 t111.5 111.5t82.5 103.5h174q31 -80 82 -161t90 -140v-27h-112q-37 33 -79 82t-83 104q-61 -55 -123.5 -103t-116.5 -83h-118z" />
<glyph unicode="&#xdc;" horiz-adv-x="1386" d="M162 385q0 35 6 86t18 109l189 882h182l-190 -893q-10 -47 -16.5 -98t-6.5 -84q0 -115 70.5 -180.5t210.5 -65.5q182 0 271 94.5t128 276.5l203 950h182l-205 -964q-33 -160 -103.5 -277t-189.5 -179t-297 -62q-229 0 -340.5 105t-111.5 300zM672 1743q0 47 28.5 82 t79.5 35q43 0 62.5 -22.5t19.5 -59.5q0 -57 -31.5 -89t-70.5 -32t-63.5 22.5t-24.5 63.5zM1040 1743q0 47 29 82t80 35q41 0 61.5 -22.5t20.5 -59.5q0 -57 -33 -89t-72 -32q-37 0 -61.5 22.5t-24.5 63.5z" />
<glyph unicode="&#xdd;" horiz-adv-x="1042" d="M188 1462h183l174 -733l479 733h207l-627 -919l-112 -543h-185l119 549zM639 1606v27q37 39 78.5 92t81.5 108.5t69 100.5h205v-21q-29 -35 -85.5 -94t-120 -117.5t-116.5 -95.5h-112z" />
<glyph unicode="&#xde;" horiz-adv-x="1161" d="M84 0l309 1462h182l-53 -254h148q236 0 338 -104.5t102 -276.5q0 -248 -165 -379t-482 -131h-129l-68 -317h-182zM365 473h129q195 0 311.5 84t116.5 264q0 123 -69 176.5t-208 53.5h-158z" />
<glyph unicode="&#xdf;" horiz-adv-x="1196" d="M-256 -317q51 -23 111 -23q66 0 107.5 47t64.5 154l278 1306q43 201 158 300.5t313 99.5q160 0 256 -70t96 -203q0 -106 -61 -178t-137 -129q-63 -47 -116.5 -92t-53.5 -100q0 -31 23.5 -58.5t54 -50t51.5 -39.5q78 -66 125 -131t47 -162q0 -131 -57.5 -214 t-149.5 -121.5t-201 -38.5q-92 0 -159.5 19t-110.5 52v166q43 -33 110.5 -61.5t137.5 -28.5q123 0 184.5 60.5t61.5 146.5q0 68 -31 110.5t-103 100.5q-86 66 -122.5 121t-36.5 118q0 70 28.5 120t73.5 88t92 71q68 47 121 97t53 122q0 66 -53 101.5t-139 35.5 q-119 0 -184.5 -63.5t-92.5 -188.5l-272 -1294q-37 -170 -113.5 -267.5t-228.5 -97.5q-74 0 -125 21v154z" />
<glyph unicode="&#xe0;" horiz-adv-x="1163" d="M98 354q0 154 40 292t112 243.5t170 167t217 61.5q109 0 176.5 -57t99.5 -133h11l65 170h137l-233 -1098h-143l26 203h-8q-70 -90 -164 -156.5t-209 -66.5q-131 0 -214 95t-83 279zM283 350q0 -111 45 -166t127 -55q76 0 148.5 55.5t132 149.5t89.5 211q16 59 21.5 109.5 t5.5 93.5q0 96 -53.5 157.5t-143.5 61.5q-80 0 -147.5 -50.5t-118.5 -137.5t-78.5 -197.5t-27.5 -231.5zM510 1548v21h193q23 -76 62.5 -155t80.5 -148v-25h-111q-39 39 -83 94.5t-83 112.5t-59 100z" />
<glyph unicode="&#xe1;" horiz-adv-x="1163" d="M98 354q0 154 40 292t112 243.5t170 167t217 61.5q109 0 176.5 -57t99.5 -133h11l65 170h137l-233 -1098h-143l26 203h-8q-70 -90 -164 -156.5t-209 -66.5q-131 0 -214 95t-83 279zM283 350q0 -111 45 -166t127 -55q76 0 148.5 55.5t132 149.5t89.5 211q16 59 21.5 109.5 t5.5 93.5q0 96 -53.5 157.5t-143.5 61.5q-80 0 -147.5 -50.5t-118.5 -137.5t-78.5 -197.5t-27.5 -231.5zM621 1241v27q37 39 78.5 92t81.5 108.5t69 100.5h205v-21q-29 -35 -85.5 -94t-120 -117.5t-116.5 -95.5h-112z" />
<glyph unicode="&#xe2;" horiz-adv-x="1163" d="M98 354q0 154 40 292t112 243.5t170 167t217 61.5q109 0 176.5 -57t99.5 -133h11l65 170h137l-233 -1098h-143l26 203h-8q-70 -90 -164 -156.5t-209 -66.5q-131 0 -214 95t-83 279zM283 350q0 -111 45 -166t127 -55q76 0 148.5 55.5t132 149.5t89.5 211q16 59 21.5 109.5 t5.5 93.5q0 96 -53.5 157.5t-143.5 61.5q-80 0 -147.5 -50.5t-118.5 -137.5t-78.5 -197.5t-27.5 -231.5zM394 1241v27q35 33 92 86t111.5 111.5t82.5 103.5h174q31 -80 82 -161t90 -140v-27h-112q-37 33 -79 82t-83 104q-61 -55 -123.5 -103t-116.5 -83h-118z" />
<glyph unicode="&#xe3;" horiz-adv-x="1163" d="M98 354q0 154 40 292t112 243.5t170 167t217 61.5q109 0 176.5 -57t99.5 -133h11l65 170h137l-233 -1098h-143l26 203h-8q-70 -90 -164 -156.5t-209 -66.5q-131 0 -214 95t-83 279zM283 350q0 -111 45 -166t127 -55q76 0 148.5 55.5t132 149.5t89.5 211q16 59 21.5 109.5 t5.5 93.5q0 96 -53.5 157.5t-143.5 61.5q-80 0 -147.5 -50.5t-118.5 -137.5t-78.5 -197.5t-27.5 -231.5zM381 1241q29 127 88.5 194.5t147.5 67.5q59 0 110.5 -27.5t94.5 -56t78 -28.5q45 0 69.5 26.5t48.5 87.5h109q-33 -127 -92.5 -194.5t-147.5 -67.5q-53 0 -102 28.5 t-93 56.5t-89 28q-43 0 -68 -29t-47 -86h-107z" />
<glyph unicode="&#xe4;" horiz-adv-x="1163" d="M98 354q0 154 40 292t112 243.5t170 167t217 61.5q109 0 176.5 -57t99.5 -133h11l65 170h137l-233 -1098h-143l26 203h-8q-70 -90 -164 -156.5t-209 -66.5q-131 0 -214 95t-83 279zM283 350q0 -111 45 -166t127 -55q76 0 148.5 55.5t132 149.5t89.5 211q16 59 21.5 109.5 t5.5 93.5q0 96 -53.5 157.5t-143.5 61.5q-80 0 -147.5 -50.5t-118.5 -137.5t-78.5 -197.5t-27.5 -231.5zM471 1378q0 47 28.5 82t79.5 35q43 0 62.5 -22.5t19.5 -59.5q0 -57 -31.5 -89t-70.5 -32t-63.5 22.5t-24.5 63.5zM839 1378q0 47 29 82t80 35q41 0 61.5 -22.5 t20.5 -59.5q0 -57 -33 -89t-72 -32q-37 0 -61.5 22.5t-24.5 63.5z" />
<glyph unicode="&#xe5;" horiz-adv-x="1163" d="M98 354q0 154 40 292t112 243.5t170 167t217 61.5q109 0 176.5 -57t99.5 -133h11l65 170h137l-233 -1098h-143l26 203h-8q-70 -90 -164 -156.5t-209 -66.5q-131 0 -214 95t-83 279zM283 350q0 -111 45 -166t127 -55q76 0 148.5 55.5t132 149.5t89.5 211q16 59 21.5 109.5 t5.5 93.5q0 96 -53.5 157.5t-143.5 61.5q-80 0 -147.5 -50.5t-118.5 -137.5t-78.5 -197.5t-27.5 -231.5zM519 1456q0 102 65.5 157.5t155.5 55.5q98 0 160.5 -55t62.5 -156q0 -104 -63.5 -160.5t-159.5 -56.5q-98 0 -159.5 56.5t-61.5 158.5zM627 1456q0 -51 30 -82t83 -31 q51 0 82.5 31t31.5 82q0 53 -31.5 83t-82.5 30q-47 0 -80 -30t-33 -83z" />
<glyph unicode="&#xe6;" horiz-adv-x="1679" d="M98 352q0 156 40 294t110.5 244.5t166 167t206.5 60.5q98 0 157.5 -56t91.5 -134h11l67 170h115l-29 -142q53 72 135 117t193 45q109 0 190.5 -62.5t81.5 -193.5q0 -106 -65.5 -194t-206.5 -140.5t-367 -52.5h-41q-2 -18 -3 -38.5t-1 -37.5q0 -125 61.5 -197.5 t190.5 -72.5q76 0 146.5 24.5t150.5 59.5v-158q-82 -37 -160.5 -56t-169.5 -19q-106 0 -188 38.5t-123 116.5l-29 -135h-120l24 203h-8q-82 -100 -165 -161.5t-198 -61.5q-119 0 -191.5 96t-72.5 276zM283 352q0 -113 36.5 -168t102.5 -55q74 0 144.5 55.5t128 149.5 t89.5 213q16 57 21.5 107.5t5.5 93.5q0 96 -44 157.5t-122 61.5q-76 0 -141.5 -50.5t-115.5 -136.5t-77.5 -196.5t-27.5 -231.5zM981 621h18q123 0 227.5 21.5t167 70.5t62.5 131q0 66 -38 95.5t-91 29.5q-113 0 -206 -91.5t-140 -256.5z" />
<glyph unicode="&#xe7;" horiz-adv-x="927" d="M98 389q0 147 40 279.5t115 232.5t181.5 158.5t237.5 58.5q72 0 143.5 -14t128.5 -39l-51 -150q-41 18 -97.5 35t-121.5 17q-117 0 -205 -79t-137 -210t-49 -287q0 -125 64.5 -193.5t176.5 -68.5q72 0 136.5 20.5t127.5 47.5v-152q-57 -29 -127.5 -47t-154.5 -18 q-182 0 -295 102t-113 307zM191 -375q20 -4 39.5 -6t34.5 -2q168 0 168 109q0 45 -38 65.5t-100 28.5l99 180h114l-59 -117q47 -14 89 -48t42 -109q0 -92 -76 -155t-221 -63q-55 0 -92 11v106z" />
<glyph unicode="&#xe8;" horiz-adv-x="1021" d="M98 393q0 131 38 259t109.5 233.5t173 169t228.5 63.5q156 0 235 -67.5t79 -188.5q0 -106 -67 -194t-208 -140.5t-367 -52.5h-34q-2 -18 -3 -38.5t-1 -37.5q0 -125 61 -197.5t186 -72.5q78 0 147.5 22.5t151.5 61.5v-154q-78 -35 -152.5 -57t-178.5 -22 q-190 0 -294 111.5t-104 301.5zM311 621h15q123 0 227 21.5t167.5 71.5t63.5 134q0 53 -35.5 87t-111.5 34q-98 0 -189.5 -91.5t-136.5 -256.5zM455 1548v21h193q23 -76 62.5 -155t80.5 -148v-25h-111q-39 39 -83 94.5t-83 112.5t-59 100z" />
<glyph unicode="&#xe9;" horiz-adv-x="1021" d="M98 393q0 131 38 259t109.5 233.5t173 169t228.5 63.5q156 0 235 -67.5t79 -188.5q0 -106 -67 -194t-208 -140.5t-367 -52.5h-34q-2 -18 -3 -38.5t-1 -37.5q0 -125 61 -197.5t186 -72.5q78 0 147.5 22.5t151.5 61.5v-154q-78 -35 -152.5 -57t-178.5 -22 q-190 0 -294 111.5t-104 301.5zM311 621h15q123 0 227 21.5t167.5 71.5t63.5 134q0 53 -35.5 87t-111.5 34q-98 0 -189.5 -91.5t-136.5 -256.5zM566 1241v27q37 39 78.5 92t81.5 108.5t69 100.5h205v-21q-29 -35 -85.5 -94t-120 -117.5t-116.5 -95.5h-112z" />
<glyph unicode="&#xea;" horiz-adv-x="1021" d="M98 393q0 131 38 259t109.5 233.5t173 169t228.5 63.5q156 0 235 -67.5t79 -188.5q0 -106 -67 -194t-208 -140.5t-367 -52.5h-34q-2 -18 -3 -38.5t-1 -37.5q0 -125 61 -197.5t186 -72.5q78 0 147.5 22.5t151.5 61.5v-154q-78 -35 -152.5 -57t-178.5 -22 q-190 0 -294 111.5t-104 301.5zM311 621h15q123 0 227 21.5t167.5 71.5t63.5 134q0 53 -35.5 87t-111.5 34q-98 0 -189.5 -91.5t-136.5 -256.5zM338 1241v27q35 33 92 86t111.5 111.5t82.5 103.5h174q31 -80 82 -161t90 -140v-27h-112q-37 33 -79 82t-83 104 q-61 -55 -123.5 -103t-116.5 -83h-118z" />
<glyph unicode="&#xeb;" horiz-adv-x="1021" d="M98 393q0 131 38 259t109.5 233.5t173 169t228.5 63.5q156 0 235 -67.5t79 -188.5q0 -106 -67 -194t-208 -140.5t-367 -52.5h-34q-2 -18 -3 -38.5t-1 -37.5q0 -125 61 -197.5t186 -72.5q78 0 147.5 22.5t151.5 61.5v-154q-78 -35 -152.5 -57t-178.5 -22 q-190 0 -294 111.5t-104 301.5zM311 621h15q123 0 227 21.5t167.5 71.5t63.5 134q0 53 -35.5 87t-111.5 34q-98 0 -189.5 -91.5t-136.5 -256.5zM416 1378q0 47 28.5 82t79.5 35q43 0 62.5 -22.5t19.5 -59.5q0 -57 -31.5 -89t-70.5 -32t-63.5 22.5t-24.5 63.5zM784 1378 q0 47 29 82t80 35q41 0 61.5 -22.5t20.5 -59.5q0 -57 -33 -89t-72 -32q-37 0 -61.5 22.5t-24.5 63.5z" />
<glyph unicode="&#xec;" horiz-adv-x="528" d="M57 0l234 1098h180l-233 -1098h-181zM193 1548v21h193q23 -76 62.5 -155t80.5 -148v-25h-111q-39 39 -83 94.5t-83 112.5t-59 100z" />
<glyph unicode="&#xed;" horiz-adv-x="528" d="M57 0l234 1098h180l-233 -1098h-181zM304 1241v27q37 39 78.5 92t81.5 108.5t69 100.5h205v-21q-29 -35 -85.5 -94t-120 -117.5t-116.5 -95.5h-112z" />
<glyph unicode="&#xee;" horiz-adv-x="528" d="M57 0l234 1098h180l-233 -1098h-181zM76 1241v27q35 33 92 86t111.5 111.5t82.5 103.5h174q31 -80 82 -161t90 -140v-27h-112q-37 33 -79 82t-83 104q-61 -55 -123.5 -103t-116.5 -83h-118z" />
<glyph unicode="&#xef;" horiz-adv-x="528" d="M57 0l234 1098h180l-233 -1098h-181zM154 1378q0 47 28.5 82t79.5 35q43 0 62.5 -22.5t19.5 -59.5q0 -57 -31.5 -89t-70.5 -32t-63.5 22.5t-24.5 63.5zM522 1378q0 47 29 82t80 35q41 0 61.5 -22.5t20.5 -59.5q0 -57 -33 -89t-72 -32q-37 0 -61.5 22.5t-24.5 63.5z" />
<glyph unicode="&#xf0;" horiz-adv-x="1167" d="M88 375q0 158 64.5 293t181.5 218t276 83q119 0 188.5 -50.5t100.5 -115.5l6 2q2 115 -26.5 222.5t-116.5 213.5l-266 -147l-60 110l234 129q-31 29 -67 56.5t-77 54.5l97 123q47 -33 97 -69t95 -83l258 144l66 -109l-236 -131q72 -92 118 -213t46 -291 q0 -147 -29.5 -294.5t-97.5 -270.5t-180.5 -196.5t-278.5 -73.5q-182 0 -287.5 103t-105.5 292zM272 377q0 -106 50.5 -177t169.5 -71q102 0 171.5 46t111.5 118t60.5 147.5t18.5 132.5q0 59 -22.5 117t-73.5 94.5t-140 36.5q-123 0 -198.5 -65.5t-111.5 -168t-36 -210.5z " />
<glyph unicode="&#xf1;" horiz-adv-x="1185" d="M49 0l236 1104h159l-22 -203h2q39 51 91 102.5t122 86t158 34.5q133 0 207.5 -72.5t74.5 -203.5q0 -47 -7 -96.5t-15 -85.5l-146 -666h-192l147 690q10 47 15.5 79t5.5 60q0 131 -140 132q-68 0 -146.5 -47.5t-147 -154t-107.5 -286.5l-102 -473h-193zM397 1241 q29 127 88.5 194.5t147.5 67.5q59 0 110.5 -27.5t94.5 -56t78 -28.5q45 0 69.5 26.5t48.5 87.5h109q-33 -127 -92.5 -194.5t-147.5 -67.5q-53 0 -102 28.5t-93 56.5t-89 28q-43 0 -68 -29t-47 -86h-107z" />
<glyph unicode="&#xf2;" horiz-adv-x="1153" d="M98 406q0 127 35 251.5t103.5 227t172 165t238.5 62.5q193 0 301.5 -113.5t108.5 -310.5q0 -125 -35 -250t-103.5 -227t-171 -164.5t-239.5 -62.5q-190 0 -300 113.5t-110 308.5zM281 399q0 -127 62 -196.5t175 -69.5q98 0 178 68.5t128 197.5t48 310q0 61 -21.5 119.5 t-70.5 96.5t-131 38q-113 0 -195.5 -77t-127.5 -205t-45 -282zM471 1548v21h193q23 -76 62.5 -155t80.5 -148v-25h-111q-39 39 -83 94.5t-83 112.5t-59 100z" />
<glyph unicode="&#xf3;" horiz-adv-x="1153" d="M98 406q0 127 35 251.5t103.5 227t172 165t238.5 62.5q193 0 301.5 -113.5t108.5 -310.5q0 -125 -35 -250t-103.5 -227t-171 -164.5t-239.5 -62.5q-190 0 -300 113.5t-110 308.5zM281 399q0 -127 62 -196.5t175 -69.5q98 0 178 68.5t128 197.5t48 310q0 61 -21.5 119.5 t-70.5 96.5t-131 38q-113 0 -195.5 -77t-127.5 -205t-45 -282zM582 1241v27q37 39 78.5 92t81.5 108.5t69 100.5h205v-21q-29 -35 -85.5 -94t-120 -117.5t-116.5 -95.5h-112z" />
<glyph unicode="&#xf4;" horiz-adv-x="1153" d="M98 406q0 127 35 251.5t103.5 227t172 165t238.5 62.5q193 0 301.5 -113.5t108.5 -310.5q0 -125 -35 -250t-103.5 -227t-171 -164.5t-239.5 -62.5q-190 0 -300 113.5t-110 308.5zM281 399q0 -127 62 -196.5t175 -69.5q98 0 178 68.5t128 197.5t48 310q0 61 -21.5 119.5 t-70.5 96.5t-131 38q-113 0 -195.5 -77t-127.5 -205t-45 -282zM355 1241v27q35 33 92 86t111.5 111.5t82.5 103.5h174q31 -80 82 -161t90 -140v-27h-112q-37 33 -79 82t-83 104q-61 -55 -123.5 -103t-116.5 -83h-118z" />
<glyph unicode="&#xf5;" horiz-adv-x="1153" d="M98 406q0 127 35 251.5t103.5 227t172 165t238.5 62.5q193 0 301.5 -113.5t108.5 -310.5q0 -125 -35 -250t-103.5 -227t-171 -164.5t-239.5 -62.5q-190 0 -300 113.5t-110 308.5zM281 399q0 -127 62 -196.5t175 -69.5q98 0 178 68.5t128 197.5t48 310q0 61 -21.5 119.5 t-70.5 96.5t-131 38q-113 0 -195.5 -77t-127.5 -205t-45 -282zM342 1241q29 127 88.5 194.5t147.5 67.5q59 0 110.5 -27.5t94.5 -56t78 -28.5q45 0 69.5 26.5t48.5 87.5h109q-33 -127 -92.5 -194.5t-147.5 -67.5q-53 0 -102 28.5t-93 56.5t-89 28q-43 0 -68 -29t-47 -86 h-107z" />
<glyph unicode="&#xf6;" horiz-adv-x="1153" d="M98 406q0 127 35 251.5t103.5 227t172 165t238.5 62.5q193 0 301.5 -113.5t108.5 -310.5q0 -125 -35 -250t-103.5 -227t-171 -164.5t-239.5 -62.5q-190 0 -300 113.5t-110 308.5zM281 399q0 -127 62 -196.5t175 -69.5q98 0 178 68.5t128 197.5t48 310q0 61 -21.5 119.5 t-70.5 96.5t-131 38q-113 0 -195.5 -77t-127.5 -205t-45 -282zM433 1378q0 47 28.5 82t79.5 35q43 0 62.5 -22.5t19.5 -59.5q0 -57 -31.5 -89t-70.5 -32t-63.5 22.5t-24.5 63.5zM801 1378q0 47 29 82t80 35q41 0 61.5 -22.5t20.5 -59.5q0 -57 -33 -89t-72 -32 q-37 0 -61.5 22.5t-24.5 63.5z" />
<glyph unicode="&#xf7;" horiz-adv-x="1171" d="M143 649v146h965v-146h-965zM510 373q0 70 34 96.5t81 26.5t79.5 -27t32.5 -96q0 -66 -32.5 -95.5t-79.5 -29.5t-81 29.5t-34 95.5zM510 1071q0 70 34 96.5t81 26.5t79.5 -26.5t32.5 -96.5q0 -66 -32.5 -95.5t-79.5 -29.5t-81 30t-34 95z" />
<glyph unicode="&#xf8;" horiz-adv-x="1153" d="M59 6l111 137q-70 102 -70 263q0 127 35 251.5t103.5 227t171 165t237.5 62.5q150 0 250 -65l100 124l109 -81l-115 -127q33 -49 47.5 -119t14.5 -139q0 -125 -34 -253t-101.5 -233.5t-170 -170t-237.5 -64.5q-141 0 -244 63l-98 -125zM274 418q0 -86 17 -125l504 627 q-23 18 -58 31.5t-88 13.5q-113 0 -197.5 -77t-131 -201t-46.5 -269zM367 172q29 -20 67.5 -31.5t83.5 -11.5q98 0 180 67.5t131.5 192.5t49.5 297q0 35 -3.5 63.5t-9.5 45.5z" />
<glyph unicode="&#xf9;" horiz-adv-x="1185" d="M113 252q0 47 7 89t15 87l144 670h182l-148 -690q-18 -88 -18 -138q0 -66 33.5 -103.5t109.5 -37.5q70 0 151 49t150.5 157.5t108.5 289.5l100 473h178l-233 -1098h-148l23 203h-10q-39 -49 -91.5 -101.5t-121 -87t-158.5 -34.5q-125 0 -199.5 69.5t-74.5 202.5z M522 1548v21h193q23 -76 62.5 -155t80.5 -148v-25h-111q-39 39 -83 94.5t-83 112.5t-59 100z" />
<glyph unicode="&#xfa;" horiz-adv-x="1185" d="M113 252q0 47 7 89t15 87l144 670h182l-148 -690q-18 -88 -18 -138q0 -66 33.5 -103.5t109.5 -37.5q70 0 151 49t150.5 157.5t108.5 289.5l100 473h178l-233 -1098h-148l23 203h-10q-39 -49 -91.5 -101.5t-121 -87t-158.5 -34.5q-125 0 -199.5 69.5t-74.5 202.5z M633 1241v27q37 39 78.5 92t81.5 108.5t69 100.5h205v-21q-29 -35 -85.5 -94t-120 -117.5t-116.5 -95.5h-112z" />
<glyph unicode="&#xfb;" horiz-adv-x="1185" d="M113 252q0 47 7 89t15 87l144 670h182l-148 -690q-18 -88 -18 -138q0 -66 33.5 -103.5t109.5 -37.5q70 0 151 49t150.5 157.5t108.5 289.5l100 473h178l-233 -1098h-148l23 203h-10q-39 -49 -91.5 -101.5t-121 -87t-158.5 -34.5q-125 0 -199.5 69.5t-74.5 202.5z M406 1241v27q35 33 92 86t111.5 111.5t82.5 103.5h174q31 -80 82 -161t90 -140v-27h-112q-37 33 -79 82t-83 104q-61 -55 -123.5 -103t-116.5 -83h-118z" />
<glyph unicode="&#xfc;" horiz-adv-x="1185" d="M113 252q0 47 7 89t15 87l144 670h182l-148 -690q-18 -88 -18 -138q0 -66 33.5 -103.5t109.5 -37.5q70 0 151 49t150.5 157.5t108.5 289.5l100 473h178l-233 -1098h-148l23 203h-10q-39 -49 -91.5 -101.5t-121 -87t-158.5 -34.5q-125 0 -199.5 69.5t-74.5 202.5z M484 1378q0 47 28.5 82t79.5 35q43 0 62.5 -22.5t19.5 -59.5q0 -57 -31.5 -89t-70.5 -32t-63.5 22.5t-24.5 63.5zM852 1378q0 47 29 82t80 35q41 0 61.5 -22.5t20.5 -59.5q0 -57 -33 -89t-72 -32q-37 0 -61.5 22.5t-24.5 63.5z" />
<glyph unicode="&#xfd;" horiz-adv-x="956" d="M-193 -326q29 -8 62 -13t70 -5q84 0 142 51t112 150l71 127l-166 1114h181l71 -543q10 -66 15.5 -144.5t8.5 -149.5t3 -114h6q14 33 42 98.5t60.5 135.5t57.5 115l319 602h193l-697 -1282q-82 -154 -173 -231t-236 -77q-49 0 -81 6.5t-61 14.5v145zM480 1241v27 q37 39 78.5 92t81.5 108.5t69 100.5h205v-21q-29 -35 -85.5 -94t-120 -117.5t-116.5 -95.5h-112z" />
<glyph unicode="&#xfe;" horiz-adv-x="1185" d="M-45 -492l432 2048h180l-78 -366q-20 -88 -39.5 -164t-35.5 -133h8q74 90 162 156.5t202 66.5q135 0 217 -95t82 -280q0 -150 -36.5 -286t-105.5 -243.5t-167 -169.5t-223 -62q-111 0 -180.5 56t-104.5 132h-10q-2 -31 -9 -90.5t-16 -95.5l-100 -474h-178zM328 350 q0 -98 50 -159.5t159 -61.5q82 0 149.5 52t115.5 140.5t73.5 199t25.5 224.5q0 221 -174 222q-72 0 -147.5 -56.5t-137 -154t-92.5 -219.5q-23 -94 -22 -187z" />
<glyph unicode="&#xff;" horiz-adv-x="956" d="M-193 -326q29 -8 62 -13t70 -5q84 0 142 51t112 150l71 127l-166 1114h181l71 -543q10 -66 15.5 -144.5t8.5 -149.5t3 -114h6q14 33 42 98.5t60.5 135.5t57.5 115l319 602h193l-697 -1282q-82 -154 -173 -231t-236 -77q-49 0 -81 6.5t-61 14.5v145zM330 1378 q0 47 28.5 82t79.5 35q43 0 62.5 -22.5t19.5 -59.5q0 -57 -31.5 -89t-70.5 -32t-63.5 22.5t-24.5 63.5zM698 1378q0 47 29 82t80 35q41 0 61.5 -22.5t20.5 -59.5q0 -57 -33 -89t-72 -32q-37 0 -61.5 22.5t-24.5 63.5z" />
<glyph unicode="&#x152;" horiz-adv-x="1759" d="M147 547q0 188 50.5 358t146.5 300t233.5 205t309.5 75q147 0 235 -23h719l-33 -162h-561l-98 -456h524l-33 -160h-524l-110 -522h561l-35 -162h-682q-37 -8 -77 -14t-83 -6q-262 0 -402.5 152.5t-140.5 414.5zM342 551q0 -193 94 -301.5t260 -108.5q70 0 125 19 l242 1140q-80 23 -189 23q-123 0 -221 -60.5t-167.5 -166t-106.5 -245.5t-37 -300z" />
<glyph unicode="&#x153;" horiz-adv-x="1773" d="M98 406q0 127 35 251.5t104.5 227t175 165t244.5 62.5q150 0 233 -61.5t122 -157.5q74 106 177 165.5t222 59.5q133 0 217 -62.5t84 -193.5q0 -106 -64.5 -194t-203.5 -140.5t-365 -52.5h-43q-2 -18 -3 -38.5t-1 -37.5q0 -125 61.5 -197.5t186.5 -72.5q78 0 146.5 23.5 t150.5 60.5v-158q-82 -39 -161 -57t-169 -18q-129 0 -220 55t-136 162q-63 -96 -161.5 -154.5t-231.5 -58.5q-182 0 -291 113.5t-109 308.5zM281 410q0 -135 60.5 -206t166.5 -71q121 0 202 76t122.5 207t41.5 293q0 115 -55 184.5t-170 69.5q-113 0 -195.5 -77t-127.5 -203 t-45 -273zM1057 621h20q123 0 227.5 22.5t168 73.5t63.5 137q0 47 -31.5 81t-95.5 34q-113 0 -209 -87t-143 -261z" />
<glyph unicode="&#x178;" horiz-adv-x="1042" d="M188 1462h183l174 -733l479 733h207l-627 -919l-112 -543h-185l119 549zM490 1743q0 47 28.5 82t79.5 35q43 0 62.5 -22.5t19.5 -59.5q0 -57 -31.5 -89t-70.5 -32t-63.5 22.5t-24.5 63.5zM858 1743q0 47 29 82t80 35q41 0 61.5 -22.5t20.5 -59.5q0 -57 -33 -89t-72 -32 q-37 0 -61.5 22.5t-24.5 63.5z" />
<glyph unicode="&#x2c6;" horiz-adv-x="802" d="M236 1241v27q35 33 92 86t111.5 111.5t82.5 103.5h174q31 -80 82 -161t90 -140v-27h-112q-37 33 -79 82t-83 104q-61 -55 -123.5 -103t-116.5 -83h-118z" />
<glyph unicode="&#x2dc;" horiz-adv-x="854" d="M229 1241q29 127 88.5 194.5t147.5 67.5q59 0 110.5 -27.5t94.5 -56t78 -28.5q45 0 69.5 26.5t48.5 87.5h109q-33 -127 -92.5 -194.5t-147.5 -67.5q-53 0 -102 28.5t-93 56.5t-89 28q-43 0 -68 -29t-47 -86h-107z" />
<glyph unicode="&#x2000;" horiz-adv-x="1017" />
<glyph unicode="&#x2001;" horiz-adv-x="2034" />
<glyph unicode="&#x2002;" horiz-adv-x="1017" />
<glyph unicode="&#x2003;" horiz-adv-x="2034" />
<glyph unicode="&#x2004;" horiz-adv-x="678" />
<glyph unicode="&#x2005;" horiz-adv-x="508" />
<glyph unicode="&#x2006;" horiz-adv-x="339" />
<glyph unicode="&#x2007;" horiz-adv-x="339" />
<glyph unicode="&#x2008;" horiz-adv-x="254" />
<glyph unicode="&#x2009;" horiz-adv-x="406" />
<glyph unicode="&#x200a;" horiz-adv-x="113" />
<glyph unicode="&#x2010;" horiz-adv-x="641" d="M53 465l37 166h483l-36 -166h-484z" />
<glyph unicode="&#x2011;" horiz-adv-x="641" d="M53 465l37 166h483l-36 -166h-484z" />
<glyph unicode="&#x2012;" horiz-adv-x="641" d="M53 465l37 166h483l-36 -166h-484z" />
<glyph unicode="&#x2013;" horiz-adv-x="983" d="M53 467l37 166h825l-34 -166h-828z" />
<glyph unicode="&#x2014;" horiz-adv-x="1966" d="M53 467l37 166h1808l-34 -166h-1811z" />
<glyph unicode="&#x2018;" horiz-adv-x="356" d="M123 983q49 109 122.5 238t145.5 241h137q-51 -121 -107 -258t-95 -243h-197z" />
<glyph unicode="&#x2019;" horiz-adv-x="356" d="M123 961q53 121 110.5 258t92.5 243h196l8 -22q-49 -109 -122.5 -238t-147.5 -241h-137z" />
<glyph unicode="&#x201a;" horiz-adv-x="497" d="M-100 -264q53 121 108 258t94 244h197l8 -23q-51 -109 -124.5 -238t-145.5 -241h-137z" />
<glyph unicode="&#x201c;" horiz-adv-x="733" d="M123 983q49 109 122.5 238t145.5 241h137q-51 -121 -107 -258t-95 -243h-197zM498 983q49 109 124.5 238t147.5 241h135q-51 -121 -108.5 -258t-94.5 -243h-196z" />
<glyph unicode="&#x201d;" horiz-adv-x="733" d="M123 961q53 121 110.5 258t92.5 243h196l8 -22q-49 -109 -122.5 -238t-147.5 -241h-137zM500 961q53 121 108.5 258t91.5 243h199l8 -22q-47 -109 -122.5 -238t-149.5 -241h-135z" />
<glyph unicode="&#x201e;" horiz-adv-x="872" d="M-100 -264q53 121 108 258t94 244h197l8 -23q-51 -109 -124.5 -238t-145.5 -241h-137zM274 -264q53 121 109.5 258t93.5 244h197l8 -23q-49 -109 -123 -238t-145 -241h-140z" />
<glyph unicode="&#x2022;" horiz-adv-x="770" d="M199 748q0 139 65.5 196t161.5 57t161.5 -57t65.5 -196q0 -135 -65.5 -194.5t-161.5 -59.5t-161.5 59t-65.5 195z" />
<glyph unicode="&#x2026;" horiz-adv-x="1574" d="M41 78q0 68 38 119t120 51q45 0 72.5 -27.5t27.5 -81.5q0 -63 -37 -115.5t-115 -52.5q-106 0 -106 107zM567 78q0 68 38 119t120 51q45 0 72.5 -27.5t27.5 -81.5q0 -63 -37 -115.5t-115 -52.5q-106 0 -106 107zM1092 78q0 68 38 119t120 51q45 0 72.5 -27.5t27.5 -81.5 q0 -63 -37 -115.5t-115 -52.5q-106 0 -106 107z" />
<glyph unicode="&#x202f;" horiz-adv-x="406" />
<glyph unicode="&#x2039;" horiz-adv-x="587" d="M86 549v29l393 387l88 -88l-295 -334l168 -379l-125 -53z" />
<glyph unicode="&#x203a;" horiz-adv-x="587" d="M20 199l295 333l-168 379l125 54l228 -439v-26l-391 -389z" />
<glyph unicode="&#x205f;" horiz-adv-x="508" />
<glyph unicode="&#x20ac;" d="M61 502l27 135h152q4 41 13 86t17 74h-149l29 137h157q90 250 249 398.5t378 148.5q102 0 173 -25.5t132 -66.5l-84 -146q-45 31 -101.5 54.5t-127.5 23.5q-135 0 -247 -97.5t-183 -289.5h417l-26 -137h-434q-10 -35 -19.5 -77t-13.5 -83h375l-31 -135h-352 q0 -190 74.5 -275.5t211.5 -85.5q72 0 136.5 15.5t123.5 40.5v-158q-55 -25 -128.5 -42t-155.5 -17q-199 0 -322 126.5t-123 395.5h-168z" />
<glyph unicode="&#x2122;" horiz-adv-x="1583" d="M35 1352v110h545v-110h-209v-611h-129v611h-207zM666 741v721h192l193 -555l198 555h187v-721h-131v418q0 16 2 64.5t4 72.5h-8l-207 -555h-109l-196 555h-9q2 -33 4 -73.5t2 -53.5v-428h-122z" />
<glyph unicode="&#x25fc;" horiz-adv-x="1095" d="M0 0v1096h1096v-1096h-1096z" />
</font>
</defs>
</svg>
