<?xml version="1.0" standalone="no"?>
<!DOCTYPE svg PUBLIC "-//W3C//DTD SVG 1.1//EN" "http://www.w3.org/Graphics/SVG/1.1/DTD/svg11.dtd" >
<svg xmlns="http://www.w3.org/2000/svg" xmlns:xlink="http://www.w3.org/1999/xlink" version="1.1">
<metadata></metadata>
<defs>
<font id="noto_sansregular" horiz-adv-x="1171" >
<font-face units-per-em="2048" ascent="1638" descent="-410" />
<missing-glyph horiz-adv-x="532" />
<glyph unicode="&#xfb01;" horiz-adv-x="1232" d="M31 958v84l192 62v63q0 213 94.5 306.5t262.5 93.5q66 0 120 -11.5t93 -25.5l-48 -141q-33 10 -75.5 20t-87.5 10q-90 0 -134.5 -60.5t-44.5 -189.5v-71h277v-140h-277v-958h-180v958h-192zM865 1395q0 59 30.5 86.5t75.5 27.5q41 0 73 -27.5t32 -86.5q0 -57 -32 -86 t-73 -29q-45 0 -75.5 28.5t-30.5 86.5zM879 0v1098h180v-1098h-180z" />
<glyph unicode="&#xfb02;" horiz-adv-x="1232" d="M31 958v84l192 62v63q0 213 94.5 306.5t262.5 93.5q66 0 120 -11.5t93 -25.5l-48 -141q-33 10 -75.5 20t-87.5 10q-90 0 -134.5 -60.5t-44.5 -189.5v-71h277v-140h-277v-958h-180v958h-192zM879 0v1556h180v-1556h-180z" />
<glyph unicode="&#xfb03;" horiz-adv-x="1937" d="M31 958v84l192 62v63q0 213 94.5 306.5t262.5 93.5q66 0 120 -11.5t93 -25.5l-48 -141q-33 10 -75.5 20t-87.5 10q-90 0 -134.5 -60.5t-44.5 -189.5v-71h277v-140h-277v-958h-180v958h-192zM736 958v84l192 62v63q0 213 94.5 306.5t262.5 93.5q66 0 120 -11.5t93 -25.5 l-48 -141q-33 10 -75.5 20t-87.5 10q-90 0 -134.5 -60.5t-44.5 -189.5v-71h277v-140h-277v-958h-180v958h-192zM1569 1395q0 59 30.5 86.5t75.5 27.5q41 0 73 -27.5t32 -86.5q0 -57 -32 -86t-73 -29q-45 0 -75.5 28.5t-30.5 86.5zM1583 0v1098h180v-1098h-180z" />
<glyph unicode="&#xfb04;" horiz-adv-x="1937" d="M31 958v84l192 62v63q0 213 94.5 306.5t262.5 93.5q66 0 120 -11.5t93 -25.5l-48 -141q-33 10 -75.5 20t-87.5 10q-90 0 -134.5 -60.5t-44.5 -189.5v-71h277v-140h-277v-958h-180v958h-192zM736 958v84l192 62v63q0 213 94.5 306.5t262.5 93.5q66 0 120 -11.5t93 -25.5 l-48 -141q-33 10 -75.5 20t-87.5 10q-90 0 -134.5 -60.5t-44.5 -189.5v-71h277v-140h-277v-958h-180v958h-192zM1583 0v1556h180v-1556h-180z" />
<glyph horiz-adv-x="0" />
<glyph horiz-adv-x="682" />
<glyph horiz-adv-x="0" />
<glyph horiz-adv-x="0" />
<glyph unicode="&#xd;" horiz-adv-x="532" />
<glyph unicode=" "  horiz-adv-x="532" />
<glyph unicode="&#x09;" horiz-adv-x="532" />
<glyph unicode="&#xa0;" horiz-adv-x="532" />
<glyph unicode="!" horiz-adv-x="550" d="M147 111q0 76 37 106.5t90 30.5q51 0 89 -31t38 -106q0 -74 -37.5 -107t-89.5 -33q-53 0 -90 33t-37 107zM166 1462h219l-51 -1050h-117z" />
<glyph unicode="&#x22;" horiz-adv-x="835" d="M133 1462h195l-41 -528h-113zM508 1462h194l-40 -528h-113z" />
<glyph unicode="#" horiz-adv-x="1323" d="M51 428v137h285l65 328h-274v135h299l82 434h147l-82 -434h295l82 434h142l-82 -434h260v-135h-287l-63 -328h280v-137h-307l-84 -428h-145l84 428h-293l-80 -428h-144l78 428h-258zM481 565h293l64 328h-293z" />
<glyph unicode="$" d="M127 168v174q70 -33 178.5 -57.5t212.5 -26.5v414q-203 55 -297 139t-94 229q0 152 105.5 238t285.5 96v180h131v-178q109 -2 198 -23.5t163 -52.5l-56 -151q-66 27 -144.5 46t-160.5 26v-412q135 -39 225.5 -83t136.5 -108.5t46 -166.5q0 -143 -106.5 -232.5 t-301.5 -109.5v-228h-131v219q-113 2 -219 19.5t-172 48.5zM303 1055q0 -82 46 -126t169 -75v363q-111 -8 -163 -51.5t-52 -110.5zM649 268q121 12 176.5 56.5t55.5 113.5q0 78 -49.5 118t-182.5 73v-361z" />
<glyph unicode="%" horiz-adv-x="1701" d="M100 1026q0 217 71.5 337t227.5 120q152 0 230 -120t78 -337t-75 -339t-233 -122q-145 0 -222 122t-77 339zM250 1026q0 -164 36 -248t113 -84q158 0 158 332q0 330 -158 330q-78 0 -113.5 -83t-35.5 -247zM367 0l811 1462h157l-811 -1462h-157zM995 440q0 217 71.5 337 t227.5 120q150 0 229 -120t79 -337t-75 -338.5t-233 -121.5q-145 0 -222 121.5t-77 338.5zM1145 440q0 -166 36 -248.5t113 -82.5q158 0 158 331q0 328 -158 328q-78 0 -113.5 -82t-35.5 -246z" />
<glyph unicode="&#x26;" horiz-adv-x="1499" d="M109 381q0 158 85 253t230 177q-66 74 -122 158t-56 196q0 152 101.5 236t275.5 84q164 0 259 -83t95 -233q0 -129 -83 -219t-210 -164l395 -380q53 63 87 146t57 179h182q-33 -131 -82 -243.5t-127 -196.5l299 -291h-244l-178 172q-96 -86 -215 -139t-289 -53 q-211 0 -335.5 104t-124.5 297zM297 387q0 -113 76 -180.5t202 -67.5q131 0 225.5 43t157.5 103l-426 413q-111 -66 -173 -133t-62 -178zM422 1167q0 -74 39 -136t112 -138q121 70 173.5 132t52.5 144q0 74 -49.5 121t-133.5 47q-86 0 -140 -45t-54 -125z" />
<glyph unicode="'" horiz-adv-x="460" d="M133 1462h195l-41 -528h-113z" />
<glyph unicode="(" horiz-adv-x="614" d="M82 561q0 250 72.5 482.5t228.5 418.5h170q-143 -193 -216 -424t-73 -475q0 -238 73 -466t214 -421h-168q-156 180 -228.5 408.5t-72.5 476.5z" />
<glyph unicode=")" horiz-adv-x="614" d="M61 1462h170q156 -186 228.5 -418.5t72.5 -482.5q0 -248 -72.5 -476t-228.5 -409h-168q141 193 214 421.5t73 465.5q0 244 -72.5 475.5t-216.5 423.5z" />
<glyph unicode="*" horiz-adv-x="1128" d="M84 1085l29 189l389 -111l-43 393h200l-41 -393l394 111l28 -189l-376 -30l243 -324l-176 -96l-174 358l-158 -358l-182 96l240 324z" />
<glyph unicode="+" d="M102 649v146h408v424h147v-424h408v-146h-408v-422h-147v422h-408z" />
<glyph unicode="," horiz-adv-x="548" d="M84 -264q29 117 58.5 256t43.5 246h193l14 -23q-27 -109 -77 -239t-99 -240h-133z" />
<glyph unicode="-" horiz-adv-x="659" d="M82 469v160h496v-160h-496z" />
<glyph unicode="." horiz-adv-x="548" d="M147 111q0 76 37 106.5t88 30.5q53 0 91 -31t38 -106q0 -74 -37.5 -107t-91.5 -33q-51 0 -88 33t-37 107z" />
<glyph unicode="/" horiz-adv-x="761" d="M20 0l545 1462h176l-544 -1462h-177z" />
<glyph unicode="0" d="M100 733q0 238 48.5 406t155 257t280.5 89q246 0 366.5 -198t120.5 -554q0 -236 -49 -404.5t-155.5 -258.5t-282.5 -90q-248 0 -366 199.5t-118 553.5zM281 733q0 -301 68.5 -450.5t234.5 -149.5q164 0 234.5 148.5t70.5 451.5q0 299 -70.5 448.5t-234.5 149.5 q-166 0 -234.5 -149.5t-68.5 -448.5z" />
<glyph unicode="1" d="M182 1155l396 307h149v-1462h-176v1022q0 88 2 141.5t6 110.5q-33 -33 -59.5 -55.5t-67.5 -57.5l-156 -127z" />
<glyph unicode="2" d="M98 0v150l383 387q111 111 186.5 196.5t114.5 168.5t39 181q0 121 -71.5 183.5t-186.5 62.5q-106 0 -187 -37t-165 -102l-96 121q86 72 197.5 122t250.5 50q205 0 324 -103.5t119 -285.5q0 -115 -47.5 -215.5t-131.5 -197.5t-196 -208l-305 -301v-8h739v-164h-967z" />
<glyph unicode="3" d="M92 59v168q92 -45 198.5 -70.5t205.5 -25.5q197 0 283.5 77t86.5 212q0 137 -107.5 197.5t-301.5 60.5h-142v153h144q180 0 273 76t93 201q0 106 -71.5 164.5t-194.5 58.5q-119 0 -203 -34.5t-166 -88.5l-90 123q78 61 194 106.5t263 45.5q229 0 341 -102.5t112 -260.5 q0 -147 -82 -234t-221 -116v-8q176 -20 262 -110.5t86 -235.5q0 -127 -59.5 -226.5t-183.5 -154.5t-318 -55q-115 0 -213.5 17t-188.5 62z" />
<glyph unicode="4" d="M43 332v153l688 985h187v-976h212v-162h-212v-332h-175v332h-700zM219 494h524v460q0 106 4.5 181t6.5 143h-9q-16 -39 -40.5 -84t-47.5 -76z" />
<glyph unicode="5" d="M129 59v170q74 -45 179.5 -70.5t201.5 -25.5q162 0 261 77t99 239q0 143 -88 219.5t-278 76.5q-57 0 -131 -10t-119 -20l-90 57l55 690h733v-164h-579l-35 -424q35 6 94 14.5t131 8.5q225 0 358.5 -112.5t133.5 -317.5q0 -227 -144.5 -357t-402.5 -130q-113 0 -212 20 t-167 59z" />
<glyph unicode="6" d="M113 625q0 158 27.5 310t100 276t203.5 198t338 74q43 0 95.5 -4t85.5 -15v-153q-37 12 -83 18t-94 6q-141 0 -235 -47t-148.5 -129t-79 -188.5t-30.5 -227.5h12q47 72 131 122t215 50q190 0 307 -115.5t117 -328.5q0 -229 -126 -360t-339 -131q-139 0 -251.5 69.5 t-179 213t-66.5 362.5zM295 506q0 -88 35 -175t104.5 -143.5t173.5 -56.5q129 0 209 83t80 257q0 139 -70.5 221t-212.5 82q-96 0 -167.5 -40t-111.5 -101.5t-40 -126.5z" />
<glyph unicode="7" d="M90 1298v164h981v-139l-594 -1323h-198l600 1298h-789z" />
<glyph unicode="8" d="M100 373q0 100 42 174t112 127t149 90q-106 61 -181 148t-75 223q0 113 57.5 189.5t156 117.5t223.5 41q193 0 315.5 -90t122.5 -260q0 -88 -38 -154t-101.5 -116t-139.5 -89q90 -43 164 -97t118 -126t44 -172q0 -184 -130 -291.5t-349 -107.5q-236 0 -363 103t-127 290z M276 371q0 -106 76 -177t234 -71q150 0 228.5 70.5t78.5 183.5q0 106 -84 177t-223 124l-33 12q-135 -57 -206 -131.5t-71 -187.5zM324 1126q0 -76 35.5 -127t97 -86.5t135.5 -68.5q106 45 179 108.5t73 173.5q0 102 -71.5 156.5t-190.5 54.5q-113 0 -185.5 -54t-72.5 -157z " />
<glyph unicode="9" d="M102 989q0 154 58.5 264.5t163 170t245.5 59.5q139 0 252 -71t178.5 -213t65.5 -361q0 -158 -27.5 -310.5t-100.5 -276.5t-205 -197.5t-339 -73.5q-41 0 -95 5t-89 15v154q80 -27 180 -27q143 0 236.5 47t148.5 128t80 188.5t29 226.5h-13q-45 -70 -130 -120t-218 -50 q-188 0 -304 115.5t-116 326.5zM281 991q0 -141 68.5 -222t211.5 -81q98 0 170 40t112 101.5t40 126.5q0 88 -35 174.5t-105 143.5t-174 57q-127 0 -207.5 -84t-80.5 -256z" />
<glyph unicode=":" horiz-adv-x="548" d="M147 111q0 76 37 106.5t88 30.5q53 0 91 -31t38 -106q0 -74 -37.5 -107t-91.5 -33q-51 0 -88 33t-37 107zM147 987q0 78 37 108.5t88 30.5q53 0 91 -30.5t38 -108.5q0 -74 -37.5 -106.5t-91.5 -32.5q-51 0 -88 32.5t-37 106.5z" />
<glyph unicode=";" horiz-adv-x="548" d="M63 -264q20 78 40 167t37.5 176t27.5 159h192l15 -23q-27 -106 -77 -238.5t-99 -240.5h-136zM143 987q0 78 37 108.5t88 30.5q53 0 91 -30.5t38 -108.5q0 -74 -37.5 -106.5t-91.5 -32.5q-51 0 -88 32.5t-37 106.5z" />
<glyph unicode="&#x3c;" d="M102 662v102l965 481v-160l-772 -364l772 -324v-159z" />
<glyph unicode="=" d="M115 444v146h938v-146h-938zM115 852v145h938v-145h-938z" />
<glyph unicode="&#x3e;" d="M102 238v159l772 322l-772 366v160l965 -481v-102z" />
<glyph unicode="?" horiz-adv-x="888" d="M25 1382q82 43 181 72t222 29q195 0 301.5 -96.5t106.5 -262.5q0 -92 -30 -156.5t-84 -118.5t-128 -116q-68 -57 -103.5 -100t-48 -85t-12.5 -102v-34h-143v55q0 78 15 134t53 107.5t104 106.5q80 68 124 113t62.5 88t18.5 104q0 98 -63.5 151.5t-184.5 53.5 q-100 0 -178 -25.5t-150 -60.5zM240 111q0 76 35.5 106.5t91.5 30.5q51 0 88 -31t37 -106q0 -74 -37 -107t-88 -33q-55 0 -91 33t-36 107z" />
<glyph unicode="@" horiz-adv-x="1841" d="M119 573q0 190 59.5 353.5t172 283t273 186t363.5 66.5q213 0 379 -88t261 -252t95 -391q0 -94 -21.5 -184t-66.5 -163t-110.5 -117t-155.5 -44q-94 0 -148.5 54.5t-66.5 123.5h-10q-37 -76 -108.5 -127t-180.5 -51q-156 0 -241 104.5t-85 276.5q0 135 53.5 238.5 t150.5 163t231 59.5q90 0 177 -15.5t136 -33.5l-21 -416q-2 -37 -2 -52.5v-21.5q0 -106 38 -141t89 -35q63 0 107.5 52.5t68 139.5t23.5 191q0 190 -77 322.5t-211 202t-304 69.5q-233 0 -394 -96t-244 -265t-83 -386q0 -303 160 -465t461 -162q125 0 238.5 27.5t201.5 60.5 v-139q-88 -37 -197.5 -60.5t-242.5 -23.5q-242 0 -414 90t-263 259t-91 406zM688 600q0 -131 52.5 -190.5t140.5 -59.5q115 0 165 86t58 223l12 256q-27 8 -67.5 14.5t-83.5 6.5q-100 0 -162 -49t-88.5 -126t-26.5 -161z" />
<glyph unicode="A" horiz-adv-x="1308" d="M0 0l571 1468h166l570 -1468h-191l-176 453h-580l-174 -453h-186zM422 616h463l-164 443q-6 16 -20.5 59t-28 89t-21.5 71q-14 -63 -32.5 -123.5t-30.5 -95.5z" />
<glyph unicode="B" horiz-adv-x="1331" d="M199 0v1462h417q274 0 414.5 -81t140.5 -281q0 -129 -71.5 -214t-206.5 -110v-10q92 -14 167 -53t118 -111t43 -186q0 -199 -136.5 -307.5t-371.5 -108.5h-514zM383 156h295q195 0 270.5 75.5t75.5 198.5q0 115 -79 185.5t-281 70.5h-281v-530zM383 840h270 q188 0 258 60.5t70 178.5q0 121 -85 173.5t-271 52.5h-242v-465z" />
<glyph unicode="C" horiz-adv-x="1294" d="M125 733q0 221 81 390t238.5 264.5t382.5 95.5q231 0 404 -86l-74 -156q-68 31 -151 55.5t-181 24.5q-236 0 -371 -157.5t-135 -432.5q0 -272 126 -431t378 -159q96 0 182.5 16.5t168.5 41.5v-160q-82 -31 -169 -45t-208 -14q-223 0 -373 92t-224.5 262t-74.5 399z" />
<glyph unicode="D" horiz-adv-x="1495" d="M199 0v1462h450q221 0 383 -82t250 -240.5t88 -394.5q0 -371 -201.5 -558t-562.5 -187h-407zM383 158h199h2q592 0 592 581q0 293 -144.5 429.5t-408.5 136.5h-240v-1147z" />
<glyph unicode="E" horiz-adv-x="1138" d="M199 0v1462h817v-162h-633v-456h596v-160h-596v-522h633v-162h-817z" />
<glyph unicode="F" horiz-adv-x="1062" d="M199 0v1462h817v-162h-633v-518h594v-161h-594v-621h-184z" />
<glyph unicode="G" horiz-adv-x="1490" d="M125 731q0 229 90 397t259 261.5t409 93.5q123 0 232.5 -22.5t203.5 -63.5l-70 -160q-78 35 -175 59.5t-202 24.5q-262 0 -408.5 -157.5t-146.5 -432.5q0 -174 56.5 -308t177.5 -209t317 -75q96 0 164 10.5t123 24.5v434h-321v164h505v-717q-119 -39 -239.5 -57 t-274.5 -18q-227 0 -382.5 91t-236.5 260t-81 400z" />
<glyph unicode="H" horiz-adv-x="1517" d="M199 0v1462h184v-618h750v618h184v-1462h-184v682h-750v-682h-184z" />
<glyph unicode="I" horiz-adv-x="694" d="M82 0v106l172 39v1170l-172 41v106h528v-106l-172 -41v-1170l172 -39v-106h-528z" />
<glyph unicode="J" horiz-adv-x="559" d="M-160 -207q33 -8 70 -14t78 -6q51 0 97 20.5t74.5 71.5t28.5 143v1454h185v-1439q0 -211 -104.5 -311.5t-276.5 -100.5q-49 0 -86 7t-66 20v155z" />
<glyph unicode="K" horiz-adv-x="1267" d="M199 0v1462h184v-721q61 70 124.5 139.5t127.5 139.5l395 442h215l-579 -637l602 -825h-217l-519 698l-149 -131v-567h-184z" />
<glyph unicode="L" horiz-adv-x="1073" d="M199 0v1462h184v-1298h639v-164h-823z" />
<glyph unicode="M" horiz-adv-x="1857" d="M199 0v1462h272l451 -1198h8l459 1198h270v-1462h-182v899q0 106 5 210.5t9 170.5h-8l-488 -1280h-151l-482 1282h-8q6 -63 10.5 -170.5t4.5 -224.5v-887h-170z" />
<glyph unicode="N" horiz-adv-x="1556" d="M199 0v1462h213l780 -1210h8q-2 33 -5 98.5t-6 143t-3 143.5v825h172v-1462h-215l-783 1214h-8q4 -72 10.5 -178t6.5 -219v-817h-170z" />
<glyph unicode="O" horiz-adv-x="1599" d="M125 735q0 225 73.5 393t224 262.5t380.5 94.5q219 0 368.5 -93.5t226.5 -262.5t77 -396t-77 -396t-226.5 -263t-370.5 -94q-227 0 -378 94t-224.5 264t-73.5 397zM319 733q0 -276 117 -435t365 -159q250 0 364.5 159t114.5 435t-114.5 433t-362.5 157t-366 -157 t-118 -433z" />
<glyph unicode="P" horiz-adv-x="1239" d="M199 0v1462h387q287 0 418 -112.5t131 -317.5q0 -121 -54.5 -226.5t-182.5 -171t-347 -65.5h-168v-569h-184zM383 727h147q209 0 311.5 67.5t102.5 229.5q0 141 -90 211t-285 70h-186v-578z" />
<glyph unicode="Q" horiz-adv-x="1599" d="M125 735q0 225 73.5 393t224 262.5t380.5 94.5q219 0 368.5 -93.5t226.5 -262.5t77 -396q0 -268 -107.5 -456.5t-318.5 -260.5l350 -364h-264l-283 330q-12 0 -25.5 -1t-25.5 -1q-227 0 -378 94t-224.5 264t-73.5 397zM319 733q0 -276 117 -435t365 -159q250 0 364.5 159 t114.5 435t-114.5 433t-362.5 157t-366 -157t-118 -433z" />
<glyph unicode="R" horiz-adv-x="1273" d="M199 0v1462h403q272 0 402.5 -103.5t130.5 -311.5q0 -117 -43 -195t-110 -124t-140 -73l401 -655h-215l-354 604h-291v-604h-184zM383 760h219q178 0 260 70.5t82 207.5q0 143 -86 204t-266 61h-209v-543z" />
<glyph unicode="S" horiz-adv-x="1124" d="M104 49v176q74 -33 183.5 -59.5t226.5 -26.5q164 0 247 63.5t83 172.5q0 72 -31 121t-105.5 91t-207.5 89q-186 68 -281.5 166t-95.5 268q0 117 59.5 200t165 128t242.5 45q121 0 221 -22.5t182 -59.5l-57 -158q-76 33 -165 55.5t-185 22.5q-137 0 -207 -58.5t-70 -154.5 q0 -74 31 -123t100.5 -88t188.5 -84q129 -47 218 -101.5t135 -130t46 -190.5q0 -195 -141.5 -303t-380.5 -108q-123 0 -227.5 18t-174.5 51z" />
<glyph unicode="T" horiz-adv-x="1138" d="M20 1300v162h1096v-162h-454v-1300h-185v1300h-457z" />
<glyph unicode="U" horiz-adv-x="1497" d="M184 520v942h185v-948q0 -178 95 -276.5t288 -98.5q199 0 287.5 105.5t88.5 271.5v946h183v-946q0 -152 -61.5 -273.5t-187.5 -192t-321 -70.5q-272 0 -414.5 148t-142.5 392z" />
<glyph unicode="V" horiz-adv-x="1228" d="M0 1462h193l329 -938q33 -90 55.5 -169t36.5 -150q14 72 37 151.5t56 171.5l327 934h195l-522 -1462h-185z" />
<glyph unicode="W" horiz-adv-x="1904" d="M25 1462h192l227 -893q25 -94 42.5 -182t27.5 -166q10 80 30.5 174t47.5 185l258 882h190l269 -889q29 -94 49 -187t31 -165q10 76 28.5 165t42.5 185l226 891h192l-389 -1462h-186l-285 958q-16 59 -32.5 119t-27 106t-14.5 64q-2 -27 -21.5 -113.5t-48.5 -181.5 l-276 -952h-186z" />
<glyph unicode="X" horiz-adv-x="1200" d="M8 0l486 762l-455 700h205l358 -573l361 573h194l-452 -696l487 -766h-209l-387 635l-393 -635h-195z" />
<glyph unicode="Y" horiz-adv-x="1159" d="M0 1462h201l379 -719l381 719h198l-487 -895v-567h-185v559z" />
<glyph unicode="Z" d="M78 0v139l770 1159h-746v164h969v-139l-770 -1159h791v-164h-1014z" />
<glyph unicode="[" horiz-adv-x="673" d="M164 -324v1786h459v-147h-283v-1491h283v-148h-459z" />
<glyph unicode="\" horiz-adv-x="761" d="M20 1462h177l546 -1462h-178z" />
<glyph unicode="]" horiz-adv-x="673" d="M51 -176h283v1491h-283v147h459v-1786h-459v148z" />
<glyph unicode="^" d="M78 547l434 926h102l480 -926h-160l-369 735l-327 -735h-160z" />
<glyph unicode="_" horiz-adv-x="909" d="M-4 -184h917v-131h-917v131z" />
<glyph unicode="`" horiz-adv-x="575" d="M82 1548v21h215q23 -45 56.5 -101.5t71.5 -109.5t69 -92v-25h-121q-47 37 -106.5 95.5t-110 116.5t-74.5 95z" />
<glyph unicode="a" horiz-adv-x="1148" d="M94 305q0 164 129 253t398 97l186 7v65q0 137 -59.5 190.5t-167.5 53.5q-86 0 -164 -25.5t-146 -58.5l-55 135q72 39 170.5 66.5t204.5 27.5q201 0 297 -88t96 -280v-748h-131l-35 156h-8q-72 -90 -150.5 -133t-218.5 -43q-150 0 -248 78.5t-98 246.5zM281 303 q0 -92 56 -135t144 -43q139 0 231.5 77t92.5 236v99l-162 -7q-205 -8 -283.5 -65t-78.5 -162z" />
<glyph unicode="b" horiz-adv-x="1259" d="M174 0v1556h180v-378q0 -70 -3 -130.5t-7 -95.5h10q47 70 129 117t211 47q205 0 329 -142.5t124 -424.5q0 -283 -125 -426t-328 -143q-129 0 -211 47t-129 112h-14l-37 -139h-129zM354 547q0 -203 66.5 -310.5t247.5 -107.5q147 0 220 108.5t73 313.5q0 416 -297 416 q-174 0 -242 -100.5t-68 -311.5v-8z" />
<glyph unicode="c" horiz-adv-x="983" d="M113 543q0 203 67.5 329.5t183 186t263.5 59.5q84 0 161.5 -17.5t126.5 -41.5l-55 -150q-49 18 -114.5 35t-122.5 17q-324 0 -324 -416q0 -199 79 -304.5t234 -105.5q90 0 159 18.5t126 45.5v-160q-55 -29 -122 -44t-161 -15q-145 0 -258.5 59t-178 184t-64.5 320z" />
<glyph unicode="d" horiz-adv-x="1259" d="M113 547q0 283 123.5 427t328.5 144q127 0 208 -47t132 -115h13q-2 27 -7.5 79t-5.5 83v438h180v-1556h-145l-27 147h-8q-49 -70 -131 -118.5t-211 -48.5q-205 0 -327.5 142t-122.5 425zM299 543q0 -197 73 -305.5t220 -108.5q174 0 244.5 95t70.5 288v33 q0 205 -67.5 314.5t-249.5 109.5q-145 0 -218 -116t-73 -310z" />
<glyph unicode="e" horiz-adv-x="1155" d="M113 541q0 180 60 309t170 198.5t255 69.5q141 0 242.5 -61.5t156 -173t54.5 -260.5v-109h-752q4 -186 95 -283.5t255 -97.5q104 0 185 19.5t167 56.5v-158q-84 -37 -165.5 -54t-194.5 -17q-156 0 -275.5 63t-186 189t-66.5 309zM303 657h559q-2 139 -65.5 226.5 t-200.5 87.5q-129 0 -204 -83t-89 -231z" />
<glyph unicode="f" horiz-adv-x="704" d="M31 958v84l192 62v63q0 213 94.5 306.5t262.5 93.5q66 0 120 -11.5t93 -25.5l-48 -141q-33 10 -75.5 20t-87.5 10q-90 0 -134.5 -60.5t-44.5 -189.5v-71h277v-140h-277v-958h-180v958h-192z" />
<glyph unicode="g" horiz-adv-x="1259" d="M113 547q0 262 119.5 416.5t330.5 154.5q109 0 196 -41t148 -125h11l24 146h143v-1116q0 -236 -119.5 -355t-371.5 -119q-242 0 -395 70v166q162 -86 405 -86q141 0 222 83t81 226v43q0 25 2 71t4 64h-8q-110 -165 -337 -165h-3q-213 0 -332.5 149.5t-119.5 417.5z M299 545q0 -203 75 -310.5t218 -107.5q166 0 241.5 89t75.5 288v43q0 225 -77.5 322.5t-243.5 97.5q-137 0 -213 -109.5t-76 -312.5z" />
<glyph unicode="h" horiz-adv-x="1265" d="M174 0v1556h180v-456q0 -82 -10 -154h12q53 84 144.5 127t197.5 43q201 0 301.5 -95t100.5 -306v-715h-178v702q0 264 -246 265q-184 0 -253 -103.5t-69 -296.5v-567h-180z" />
<glyph unicode="i" horiz-adv-x="528" d="M160 1395q0 59 30.5 86.5t75.5 27.5q41 0 73 -27.5t32 -86.5q0 -57 -32 -86t-73 -29q-45 0 -75.5 28.5t-30.5 86.5zM174 0v1098h180v-1098h-180z" />
<glyph unicode="j" horiz-adv-x="528" d="M-113 -322q31 -8 64 -14t72 -6q66 0 108.5 36t42.5 136v1268h180v-1262q0 -154 -73.5 -241t-235.5 -87q-51 0 -90 7.5t-68 17.5v145zM160 1395q0 59 30.5 86.5t75.5 27.5q41 0 73 -27.5t32 -86.5q0 -57 -32 -86t-73 -29q-45 0 -75.5 29t-30.5 86z" />
<glyph unicode="k" horiz-adv-x="1093" d="M174 0v1556h178v-813q0 -33 -3 -86t-5 -92h8q12 16 37 47t50.5 63t43.5 52l351 371h210l-444 -469l475 -629h-217l-381 512l-125 -109v-403h-178z" />
<glyph unicode="l" horiz-adv-x="528" d="M174 0v1556h180v-1556h-180z" />
<glyph unicode="m" horiz-adv-x="1914" d="M174 0v1098h145l27 -150h10q51 86 138.5 128t185.5 42q258 0 336 -184h10q55 94 150.5 139t201.5 45q186 0 278.5 -95t92.5 -308v-715h-178v707q0 260 -223 260q-160 0 -228.5 -92.5t-68.5 -268.5v-606h-179v707q0 260 -225 260q-166 0 -229.5 -102.5t-63.5 -295.5v-569 h-180z" />
<glyph unicode="n" horiz-adv-x="1265" d="M174 0v1098h145l27 -150h10q53 86 147.5 128t198.5 42q197 0 297.5 -95t100.5 -308v-715h-178v702q0 264 -246 265q-182 0 -252 -102.5t-70 -295.5v-569h-180z" />
<glyph unicode="o" horiz-adv-x="1239" d="M113 551q0 272 137 419.5t373 147.5q150 0 263 -66.5t177.5 -192.5t64.5 -308q0 -272 -138 -421.5t-374 -149.5q-145 0 -258.5 66.5t-179 194.5t-65.5 310zM299 551q0 -195 77 -308.5t245 -113.5q166 0 243.5 113.5t77.5 308.5t-78 305.5t-246 110.5t-243.5 -110.5 t-75.5 -305.5z" />
<glyph unicode="p" horiz-adv-x="1259" d="M174 -492v1590h148l24 -150h8q49 72 129 121t213 49q203 0 327 -141t124 -426q0 -281 -124 -426t-329 -145q-127 0 -210 48t-130 111h-12q4 -35 8 -88t4 -92v-451h-180zM354 551q0 -203 66.5 -312.5t247.5 -109.5q100 0 164.5 55.5t96.5 150.5t32 218q0 188 -72.5 301 t-224.5 113q-168 0 -237 -94.5t-73 -286.5v-35z" />
<glyph unicode="q" horiz-adv-x="1259" d="M113 547q0 283 126 427t326 144q129 0 211 -49t131 -121h8l27 150h143v-1590h-180v469q0 37 2 86.5t8 83.5h-12q-47 -70 -130 -118.5t-214 -48.5q-199 0 -322.5 142t-123.5 425zM299 543q0 -195 72.5 -304.5t222.5 -109.5q170 0 240.5 93t72.5 286v37q0 209 -69.5 316.5 t-247.5 107.5q-147 0 -219 -116t-72 -310z" />
<glyph unicode="r" horiz-adv-x="845" d="M174 0v1098h148l20 -201h8q53 90 137 155.5t199 65.5q31 0 66.5 -3t62.5 -9l-22 -166q-27 6 -59 10t-60 4q-84 0 -158 -46t-118 -129t-44 -193v-586h-180z" />
<glyph unicode="s" horiz-adv-x="980" d="M104 827q0 139 114 215t298 76q100 0 187.5 -19.5t162.5 -54.5l-61 -143q-70 29 -145.5 49.5t-155.5 20.5q-111 0 -169.5 -36t-58.5 -97q0 -45 27 -77t89.5 -61.5t166.5 -70.5q104 -39 178 -80t113 -99.5t39 -146.5q0 -160 -119 -241.5t-319 -81.5q-115 0 -198 18 t-147 51v164q66 -33 159 -60.5t190 -27.5q137 0 198.5 44t61.5 118q0 41 -22.5 73.5t-81 65.5t-167.5 74q-106 41 -182 82t-117 98t-41 147z" />
<glyph unicode="t" horiz-adv-x="739" d="M33 958v86l157 72l72 234h107v-252h317v-140h-317v-634q0 -100 48 -148.5t124 -48.5q41 0 84 7t69 16v-138q-29 -14 -82 -23t-102 -9q-86 0 -158.5 29.5t-118 103t-45.5 206.5v639h-155z" />
<glyph unicode="u" horiz-adv-x="1265" d="M162 379v719h182v-707q0 -262 244 -262q182 0 252.5 102.5t70.5 294.5v572h181v-1098h-148l-26 145h-9q-53 -86 -147 -125.5t-201 -39.5q-199 0 -299 95t-100 304z" />
<glyph unicode="v" horiz-adv-x="1040" d="M0 1098h193l233 -647q16 -45 34.5 -100.5t33 -105.5t20.5 -85h8q8 35 23.5 86t35 106.5t33.5 98.5l234 647h192l-417 -1098h-207z" />
<glyph unicode="w" horiz-adv-x="1609" d="M23 1100h186l151 -586q23 -88 43.5 -178t28.5 -150h8q8 35 19.5 86.5t26 107.5t28.5 101l195 619h196l189 -619q23 -70 44 -151.5t29 -141.5h9q6 51 27.5 141.5t45.5 184.5l154 586h184l-305 -1098h-211l-188 619q-27 84 -46.5 164.5t-29.5 125.5h-8q-8 -45 -26.5 -125.5 t-47.5 -167.5l-197 -616h-204z" />
<glyph unicode="x" horiz-adv-x="1083" d="M37 0l397 561l-379 537h205l283 -414l280 414h203l-379 -537l400 -561h-205l-299 438l-303 -438h-203z" />
<glyph unicode="y" horiz-adv-x="1044" d="M2 1098h193l237 -625q31 -82 55.5 -156.5t36.5 -142.5h8q12 51 39 134t56 167l223 623h194l-473 -1250q-57 -156 -148 -248t-251 -92q-49 0 -86 5.5t-63 11.5v143q23 -4 54.5 -8t65.5 -4q94 0 152.5 53t91.5 141l57 146z" />
<glyph unicode="z" horiz-adv-x="962" d="M80 0v119l590 839h-555v140h753v-135l-581 -824h596v-139h-803z" />
<glyph unicode="{" horiz-adv-x="778" d="M57 496v149q121 2 185.5 45t64.5 146v303q0 164 112.5 243.5t293.5 79.5v-147q-106 -2 -167 -47t-61 -146v-295q0 -211 -223 -249v-13q223 -39 223 -250v-301q0 -100 59.5 -144t168.5 -46v-148q-188 2 -297 82t-109 244v301q0 104 -64.5 148.5t-185.5 44.5z" />
<glyph unicode="|" horiz-adv-x="1128" d="M489 -494v2050h150v-2050h-150z" />
<glyph unicode="}" horiz-adv-x="778" d="M66 -176q106 4 166.5 48t60.5 144v297q0 211 223 250v12q-223 39 -223 250v299q0 100 -59.5 144.5t-167.5 46.5v147q188 -2 296.5 -82t108.5 -243v-299q0 -104 64.5 -148.5t185.5 -44.5v-149q-121 -2 -185.5 -45t-64.5 -146v-305q0 -162 -112.5 -243t-292.5 -81v148z" />
<glyph unicode="~" d="M102 588v160q98 109 246 108q59 0 117.5 -12.5t152.5 -52.5q74 -33 122 -44.5t91 -11.5q59 0 123 35t113 86v-158q-100 -111 -246 -110q-57 0 -117.5 13t-152.5 52q-74 33 -122 44.5t-93 11.5q-57 0 -120.5 -35t-113.5 -86z" />
<glyph unicode="&#xa1;" horiz-adv-x="550" d="M147 979q0 74 38 106.5t89 32.5q53 0 90 -32.5t37 -106.5q0 -76 -36.5 -106.5t-90.5 -30.5q-51 0 -89 30.5t-38 106.5zM162 -373l51 1049h119l51 -1049h-221z" />
<glyph unicode="&#xa2;" d="M186 741q0 186 49.5 305t139.5 182.5t209 82.5v172h139v-164q78 -2 148.5 -19.5t121.5 -39.5l-53 -150q-53 20 -120.5 36.5t-123.5 16.5q-168 0 -246.5 -103.5t-78.5 -316.5t80.5 -310t236.5 -97q90 0 156.5 17.5t130.5 43.5v-157q-55 -27 -114.5 -42.5t-139.5 -19.5 v-198h-137v204q-121 18 -210 80t-138.5 178.5t-49.5 298.5z" />
<glyph unicode="&#xa3;" d="M66 0v152q88 23 145 88t57 200v215h-196v136h196v303q0 182 114 284.5t302 102.5q113 0 203 -24.5t160 -59.5l-64 -144q-61 29 -136 53.5t-159 24.5q-117 0 -178 -60.5t-61 -195.5v-284h417v-136h-417v-213q0 -125 -43.5 -185t-96.5 -93h787v-164h-1030z" />
<glyph unicode="&#xa4;" d="M121 1087l100 97l135 -131q47 35 106.5 53t123.5 18q63 0 119.5 -18.5t105.5 -52.5l137 131l99 -97l-132 -137q31 -47 51.5 -105.5t20.5 -121.5q0 -129 -72 -229l129 -136l-96 -96l-137 131q-47 -33 -104.5 -51t-120.5 -18q-131 0 -230 71l-135 -131l-98 96l133 136 q-33 47 -52.5 105.5t-19.5 121.5q0 61 19.5 119.5t52.5 105.5zM322 723q0 -74 34.5 -133.5t95 -95t134.5 -35.5q76 0 135 35.5t95 95t36 133.5q0 76 -36 136.5t-95 96t-135 35.5q-74 0 -134.5 -35.5t-95 -96t-34.5 -136.5z" />
<glyph unicode="&#xa5;" d="M29 1462h190l365 -714l366 714h189l-412 -768h254v-131h-309v-168h309v-131h-309v-264h-176v264h-310v131h310v168h-310v131h250z" />
<glyph unicode="&#xa6;" horiz-adv-x="1128" d="M489 287h150v-781h-150v781zM489 776v780h150v-780h-150z" />
<glyph unicode="&#xa7;" horiz-adv-x="1050" d="M121 57v154q66 -31 162 -57.5t192 -26.5q152 0 209 44t57 101q0 39 -19.5 68t-75.5 60.5t-169 72.5q-106 41 -183 84t-117 102.5t-40 149.5q0 102 49.5 164.5t112.5 93.5q-74 41 -115 97.5t-41 138.5q0 123 104.5 193.5t299.5 70.5q115 0 194.5 -19.5t155.5 -50.5 l-55 -137q-70 29 -139.5 48t-167.5 19q-123 0 -173.5 -31.5t-50.5 -88.5t57.5 -97.5t213.5 -97.5q158 -57 245.5 -131t87.5 -197q0 -104 -47 -170.5t-106 -101.5q72 -39 111.5 -93t39.5 -132q0 -141 -117.5 -219t-328.5 -78q-113 0 -197 17.5t-149 49.5zM291 829 q0 -76 64.5 -128t228.5 -113l45 -17q47 29 89 73t42 114q0 51 -27.5 92t-97.5 79t-197 77q-57 -14 -102 -61.5t-45 -115.5z" />
<glyph unicode="&#xa8;" horiz-adv-x="1187" d="M305 1395q0 53 28.5 76.5t67.5 23.5t68 -23.5t29 -76.5q0 -51 -29 -77t-68 -26t-67.5 26t-28.5 77zM690 1395q0 53 27.5 76.5t66.5 23.5t68 -23.5t29 -76.5q0 -51 -29 -77t-68 -26t-66.5 26t-27.5 77z" />
<glyph unicode="&#xa9;" horiz-adv-x="1703" d="M100 731q0 164 55.5 301t157 238.5t238.5 157t301 55.5q156 0 292 -55.5t239.5 -157t162 -238.5t58.5 -301t-55.5 -301t-157 -238.5t-238.5 -156.5t-301 -55t-301 55t-238.5 156.5t-157 238.5t-55.5 301zM215 731q0 -133 47 -249.5t132 -205t202 -138.5t256 -50 q131 0 245.5 47t203 134t137.5 204t49 258q0 133 -47 250t-132 205t-201 138t-255 50q-184 0 -328.5 -83t-226.5 -227t-82 -333zM479 731q0 133 47 236.5t139.5 162t225.5 58.5t252 -62l-60 -125q-102 53 -190 54q-121 0 -187.5 -86t-66.5 -238q0 -156 58.5 -240.5 t193.5 -84.5q47 0 105.5 13t109.5 34v-131q-49 -20 -100 -35t-123 -15q-203 0 -303.5 126t-100.5 333z" />
<glyph unicode="&#xaa;" horiz-adv-x="731" d="M66 987q0 203 323 215l115 4v45q0 68 -43 94.5t-103 26.5q-57 0 -108 -15.5t-98 -37.5l-46 100q53 27 119.5 43.5t136.5 16.5q133 0 201 -55.5t68 -176.5v-450h-96l-25 86q-41 -43 -98.5 -71t-135.5 -28q-96 0 -153 50.5t-57 152.5zM197 987q0 -51 29.5 -74.5t80.5 -23.5 q104 0 150.5 48t46.5 130v47l-98 -4q-123 -4 -166 -36t-43 -87z" />
<glyph unicode="&#xab;" horiz-adv-x="1042" d="M82 526v27l344 412l129 -74l-287 -350l287 -351l-129 -75zM487 526v27l349 412l127 -74l-287 -350l287 -351l-127 -75z" />
<glyph unicode="&#xac;" d="M102 649v146h963v-533h-145v387h-818z" />
<glyph unicode="&#xad;" horiz-adv-x="659" d="M82 469v160h496v-160h-496z" />
<glyph unicode="&#xae;" horiz-adv-x="1703" d="M100 731q0 164 55.5 301t157 238.5t238.5 157t301 55.5q156 0 292 -55.5t239.5 -157t162 -238.5t58.5 -301t-55.5 -301t-157 -238.5t-238.5 -156.5t-301 -55t-301 55t-238.5 156.5t-157 238.5t-55.5 301zM215 731q0 -133 47 -249.5t132 -205t202 -138.5t256 -50 q131 0 245.5 47t203 134t137.5 204t49 258q0 133 -47 250t-132 205t-201 138t-255 50q-184 0 -328.5 -83t-226.5 -227t-82 -333zM571 283v895h263q168 0 245.5 -65.5t77.5 -199.5q0 -96 -49 -152t-111 -81l238 -397h-176l-205 354h-127v-354h-156zM727 764h102q80 0 125 41 t45 104q0 72 -40.5 105t-131.5 33h-100v-283z" />
<glyph unicode="&#xaf;" horiz-adv-x="1024" d="M-6 1556v136h1036v-136h-1036z" />
<glyph unicode="&#xb0;" horiz-adv-x="876" d="M113 1167q0 139 88 227.5t237 88.5q145 0 235.5 -88t90.5 -228q0 -139 -90.5 -226t-235.5 -87q-147 0 -236 87t-89 226zM246 1167q0 -86 47 -139t147 -53q98 0 144.5 53t46.5 139q0 90 -48 143.5t-143 53.5q-100 0 -147 -53.5t-47 -143.5z" />
<glyph unicode="&#xb1;" d="M102 0v145h965v-145h-965zM102 655v146h408v424h147v-424h408v-146h-408v-422h-147v422h-408z" />
<glyph unicode="&#xb2;" horiz-adv-x="716" d="M49 852v111l236 229q84 80 126 130t57 90t15 85q0 66 -37.5 98.5t-99.5 32.5q-61 0 -111.5 -23.5t-103.5 -64.5l-72 94q59 51 130 82t159 31q131 0 206 -64.5t75 -177.5q0 -100 -60.5 -180t-175.5 -188l-166 -158h400v-127h-578z" />
<glyph unicode="&#xb3;" horiz-adv-x="716" d="M35 893v129q143 -70 270 -70q106 0 155.5 42t49.5 114q0 74 -59.5 107.5t-165.5 33.5h-117v113h117q102 0 150 40t48 103q0 66 -42 95.5t-101 29.5q-63 0 -117.5 -21.5t-109.5 -56.5l-74 95q63 47 134 73.5t165 26.5q145 0 219 -63.5t74 -161.5q0 -82 -44 -135.5 t-106 -73.5v-6q80 -14 128 -66.5t48 -136.5q0 -119 -86 -193.5t-268 -74.5q-76 0 -141.5 13t-126.5 44z" />
<glyph unicode="&#xb4;" horiz-adv-x="575" d="M82 1241v25q31 39 66.5 92t70.5 109.5t57 101.5h218v-21q-25 -37 -76 -95t-109.5 -116.5t-107.5 -95.5h-119z" />
<glyph unicode="&#xb5;" horiz-adv-x="1275" d="M174 -492v1590h180v-709q0 -260 246 -260q182 0 252 102.5t70 294.5v572h180v-1098h-146l-28 147h-10q-51 -82 -133.5 -124.5t-196.5 -42.5q-80 0 -137.5 25.5t-98.5 66.5h-8q4 -37 7 -98.5t3 -145.5v-320h-180z" />
<glyph unicode="&#xb6;" horiz-adv-x="1341" d="M113 1042q0 197 56 308.5t158.5 158.5t235.5 47h561v-1816h-118v1702h-209v-1702h-119v819q-31 -8 -71 -13t-75 -5q-127 0 -221 47t-146 157.5t-52 296.5z" />
<glyph unicode="&#xb7;" horiz-adv-x="548" d="M147 723q0 76 37 106.5t88 30.5q53 0 91 -31t38 -106q0 -74 -37.5 -107t-91.5 -33q-51 0 -88 33t-37 107z" />
<glyph unicode="&#xb8;" horiz-adv-x="460" d="M29 -369q18 -4 49 -7t59 -3q74 0 113 19.5t39 70.5q0 53 -54.5 78t-132.5 35l88 176h119l-53 -109q74 -16 126 -57t52 -119q0 -98 -75.5 -152.5t-227.5 -54.5q-66 0 -102 11v112z" />
<glyph unicode="&#xb9;" horiz-adv-x="716" d="M76 1540l266 189h150v-877h-146v565q0 53 3 96t5 86q-20 -18 -44.5 -39.5t-51.5 -39.5l-111 -80z" />
<glyph unicode="&#xba;" horiz-adv-x="770" d="M66 1133q0 168 86 257t235 89q145 0 232.5 -88t87.5 -258q0 -166 -88.5 -257.5t-235.5 -91.5q-137 0 -227 89.5t-90 259.5zM195 1133q0 -119 45 -179.5t145 -60.5t145 60.5t45 179.5q0 121 -45 179t-145 58t-145 -58t-45 -179z" />
<glyph unicode="&#xbb;" horiz-adv-x="1042" d="M80 190l287 351l-287 350l127 74l346 -412v-27l-346 -411zM485 190l287 351l-287 350l127 74l349 -412v-27l-349 -411z" />
<glyph unicode="&#xbc;" horiz-adv-x="1525" d="M70 1274l266 188h149v-876h-145v565q0 53 3 96t5 86q-20 -18 -44.5 -39.5t-51.5 -40.5l-111 -79zM258 0l893 1462h154l-893 -1462h-154zM829 197v106l404 580h149v-564h125v-122h-125v-197h-153v197h-400zM973 319h256v191q0 43 2 100.5t4 106.5q-10 -23 -43 -73t-55 -85 z" />
<glyph unicode="&#xbd;" horiz-adv-x="1579" d="M45 1274l266 188h150v-876h-146v565q0 53 3.5 96t5.5 86q-20 -18 -45 -39.5t-52 -40.5l-110 -79zM197 0l893 1462h153l-893 -1462h-153zM911 0v111l236 229q84 80 126 130t57.5 90t15.5 85q0 66 -38 98.5t-100 32.5q-61 0 -111 -23.5t-104 -64.5l-71 94q59 51 129.5 82 t158.5 31q131 0 206 -64.5t75 -177.5q0 -100 -60.5 -180t-175.5 -188l-165 -158h399v-127h-578z" />
<glyph unicode="&#xbe;" horiz-adv-x="1599" d="M31 627v129q143 -70 270 -70q106 0 155.5 42t49.5 114q0 74 -59.5 107.5t-165.5 33.5h-117v113h117q102 0 150 40t48 103q0 66 -42 95.5t-101 29.5q-63 0 -117.5 -21.5t-109.5 -56.5l-74 94q63 47 134 74t165 27q145 0 219 -63.5t74 -162.5q0 -82 -44 -135t-106 -73v-7 q80 -14 128 -66t48 -136q0 -119 -86 -194t-268 -75q-76 0 -141.5 13.5t-126.5 44.5zM348 0l893 1462h154l-893 -1462h-154zM903 197v106l404 580h149v-564h125v-122h-125v-197h-153v197h-400zM1047 319h256v191q0 43 2 100.5t4 106.5q-10 -23 -43 -73t-56 -85z" />
<glyph unicode="&#xbf;" horiz-adv-x="888" d="M49 -35q0 92 30 156.5t84 119t128 115.5q70 59 104.5 101.5t47 85.5t12.5 100v35h143v-55q0 -76 -15.5 -133.5t-52 -107.5t-104.5 -108q-78 -66 -123 -111.5t-63.5 -88.5t-18.5 -105q0 -98 64.5 -151.5t183.5 -53.5q102 0 180 27t148 59l63 -143q-82 -43 -181 -71.5 t-222 -28.5q-195 0 -301.5 96t-106.5 262zM393 979q0 74 37 106.5t88 32.5q55 0 91 -32.5t36 -106.5q0 -76 -36 -106.5t-91 -30.5q-51 0 -88 30.5t-37 106.5z" />
<glyph unicode="&#xc0;" horiz-adv-x="1308" d="M0 0l571 1468h166l570 -1468h-191l-176 453h-580l-174 -453h-186zM385 1913v21h215q23 -45 56.5 -101.5t71.5 -109.5t69 -92v-25h-121q-47 37 -106.5 95.5t-110 116.5t-74.5 95zM422 616h463l-164 443q-6 16 -20.5 59t-28 89t-21.5 71q-14 -63 -32.5 -123.5t-30.5 -95.5z " />
<glyph unicode="&#xc1;" horiz-adv-x="1308" d="M0 0l571 1468h166l570 -1468h-191l-176 453h-580l-174 -453h-186zM422 616h463l-164 443q-6 16 -20.5 59t-28 89t-21.5 71q-14 -63 -32.5 -123.5t-30.5 -95.5zM543 1606v25q31 39 66.5 92t70.5 109.5t57 101.5h218v-21q-25 -37 -76 -95t-109.5 -116.5t-107.5 -95.5h-119z " />
<glyph unicode="&#xc2;" horiz-adv-x="1308" d="M0 0l571 1468h166l570 -1468h-191l-176 453h-580l-174 -453h-186zM305 1606v23q39 41 87 94t93 109.5t72 101.5h184q25 -45 71 -101.5t96 -110.5t89 -93v-23h-127q-53 33 -110.5 81t-112.5 103q-55 -55 -110.5 -102t-108.5 -82h-123zM422 616h463l-164 443 q-6 16 -20.5 59t-28 89t-21.5 71q-14 -63 -32.5 -123.5t-30.5 -95.5z" />
<glyph unicode="&#xc3;" horiz-adv-x="1308" d="M0 0l571 1468h166l570 -1468h-191l-176 453h-580l-174 -453h-186zM277 1606q12 121 70.5 191.5t154.5 70.5q61 0 115.5 -29.5t103.5 -58.5t92 -29q47 0 73 30t40 89h103q-12 -119 -69.5 -190.5t-154.5 -71.5q-57 0 -111.5 28.5t-104.5 58.5t-95 30q-49 0 -73.5 -30 t-39.5 -89h-104zM422 616h463l-164 443q-6 16 -20.5 59t-28 89t-21.5 71q-14 -63 -32.5 -123.5t-30.5 -95.5z" />
<glyph unicode="&#xc4;" horiz-adv-x="1308" d="M0 0l571 1468h166l570 -1468h-191l-176 453h-580l-174 -453h-186zM364 1760q0 53 28.5 76.5t67.5 23.5t68 -23.5t29 -76.5q0 -51 -29 -77t-68 -26t-67.5 26t-28.5 77zM422 616h463l-164 443q-6 16 -20.5 59t-28 89t-21.5 71q-14 -63 -32.5 -123.5t-30.5 -95.5zM749 1760 q0 53 27.5 76.5t66.5 23.5t68 -23.5t29 -76.5q0 -51 -29 -77t-68 -26t-66.5 26t-27.5 77z" />
<glyph unicode="&#xc5;" horiz-adv-x="1308" d="M0 0l571 1468h166l570 -1468h-191l-176 453h-580l-174 -453h-186zM422 616h463l-164 443q-6 16 -20.5 59t-28 89t-21.5 71q-14 -63 -32.5 -123.5t-30.5 -95.5zM426 1583q0 102 61.5 158.5t161.5 56.5q96 0 161.5 -56t65.5 -157q0 -104 -64.5 -161.5t-162.5 -57.5 q-100 0 -161.5 57.5t-61.5 159.5zM534 1583q0 -53 30 -84t85 -31q51 0 83 31t32 84t-33 84t-82 31t-82 -31t-33 -84z" />
<glyph unicode="&#xc6;" horiz-adv-x="1804" d="M-2 0l694 1462h989v-162h-577v-456h538v-160h-538v-522h577v-162h-761v453h-512l-220 -453h-190zM479 616h441v682h-119z" />
<glyph unicode="&#xc7;" horiz-adv-x="1294" d="M125 733q0 221 81 390t238.5 264.5t382.5 95.5q231 0 404 -86l-74 -156q-68 31 -151 55.5t-181 24.5q-236 0 -371 -157.5t-135 -432.5q0 -272 126 -431t378 -159q96 0 182.5 16.5t168.5 41.5v-160q-82 -31 -169 -45t-208 -14q-223 0 -373 92t-224.5 262t-74.5 399z M564 -369q18 -4 49 -7t59 -3q74 0 113 19.5t39 70.5q0 53 -54.5 78t-132.5 35l88 176h119l-53 -109q74 -16 126 -57t52 -119q0 -98 -75.5 -152.5t-227.5 -54.5q-66 0 -102 11v112z" />
<glyph unicode="&#xc8;" horiz-adv-x="1138" d="M199 0v1462h817v-162h-633v-456h596v-160h-596v-522h633v-162h-817zM358 1913v21h215q23 -45 56.5 -101.5t71.5 -109.5t69 -92v-25h-121q-47 37 -106.5 95.5t-110 116.5t-74.5 95z" />
<glyph unicode="&#xc9;" horiz-adv-x="1138" d="M199 0v1462h817v-162h-633v-456h596v-160h-596v-522h633v-162h-817zM516 1606v25q31 39 66.5 92t70.5 109.5t57 101.5h218v-21q-25 -37 -76 -95t-109.5 -116.5t-107.5 -95.5h-119z" />
<glyph unicode="&#xca;" horiz-adv-x="1138" d="M199 0v1462h817v-162h-633v-456h596v-160h-596v-522h633v-162h-817zM279 1606v23q39 41 87 94t93 109.5t72 101.5h184q25 -45 71 -101.5t96 -110.5t89 -93v-23h-127q-53 33 -110.5 81t-112.5 103q-55 -55 -110.5 -102t-108.5 -82h-123z" />
<glyph unicode="&#xcb;" horiz-adv-x="1138" d="M199 0v1462h817v-162h-633v-456h596v-160h-596v-522h633v-162h-817zM338 1760q0 53 28.5 76.5t67.5 23.5t68 -23.5t29 -76.5q0 -51 -29 -77t-68 -26t-67.5 26t-28.5 77zM723 1760q0 53 27.5 76.5t66.5 23.5t68 -23.5t29 -76.5q0 -51 -29 -77t-68 -26t-66.5 26t-27.5 77z " />
<glyph unicode="&#xcc;" horiz-adv-x="694" d="M82 0v106l172 39v1170l-172 41v106h528v-106l-172 -41v-1170l172 -39v-106h-528zM82 1913v21h215q23 -45 56.5 -101.5t71.5 -109.5t69 -92v-25h-121q-47 37 -106.5 95.5t-110 116.5t-74.5 95z" />
<glyph unicode="&#xcd;" horiz-adv-x="694" d="M82 0v106l172 39v1170l-172 41v106h528v-106l-172 -41v-1170l172 -39v-106h-528zM240 1606v25q31 39 66.5 92t70.5 109.5t57 101.5h218v-21q-25 -37 -76 -95t-109.5 -116.5t-107.5 -95.5h-119z" />
<glyph unicode="&#xce;" horiz-adv-x="694" d="M2 1606v23q39 41 87 94t93 109.5t72 101.5h184q25 -45 71 -101.5t96 -110.5t89 -93v-23h-127q-53 33 -110.5 81t-112.5 103q-55 -55 -110.5 -102t-108.5 -82h-123zM82 0v106l172 39v1170l-172 41v106h528v-106l-172 -41v-1170l172 -39v-106h-528z" />
<glyph unicode="&#xcf;" horiz-adv-x="694" d="M61 1760q0 53 28.5 76.5t67.5 23.5t68 -23.5t29 -76.5q0 -51 -29 -77t-68 -26t-67.5 26t-28.5 77zM82 0v106l172 39v1170l-172 41v106h528v-106l-172 -41v-1170l172 -39v-106h-528zM446 1760q0 53 27.5 76.5t66.5 23.5t68 -23.5t29 -76.5q0 -51 -29 -77t-68 -26t-66.5 26 t-27.5 77z" />
<glyph unicode="&#xd0;" horiz-adv-x="1495" d="M61 643v160h152v659h436q219 0 381 -82t251 -240.5t89 -394.5q0 -371 -201.5 -558t-564.5 -187h-391v643h-152zM397 158h185q594 0 594 581q0 293 -145.5 429.5t-407.5 136.5h-226v-502h365v-160h-365v-485z" />
<glyph unicode="&#xd1;" horiz-adv-x="1556" d="M199 0v1462h213l780 -1210h8q-2 33 -5 98.5t-6 143t-3 143.5v825h172v-1462h-215l-783 1214h-8q4 -72 10.5 -178t6.5 -219v-817h-170zM404 1606q12 121 70.5 191.5t154.5 70.5q61 0 115.5 -29.5t103.5 -58.5t92 -29q47 0 73 30t40 89h103q-12 -119 -69.5 -190.5 t-154.5 -71.5q-57 0 -111.5 28.5t-104.5 58.5t-95 30q-49 0 -73.5 -30t-39.5 -89h-104z" />
<glyph unicode="&#xd2;" horiz-adv-x="1599" d="M125 735q0 225 73.5 393t224 262.5t380.5 94.5q219 0 368.5 -93.5t226.5 -262.5t77 -396t-77 -396t-226.5 -263t-370.5 -94q-227 0 -378 94t-224.5 264t-73.5 397zM319 733q0 -276 117 -435t365 -159q250 0 364.5 159t114.5 435t-114.5 433t-362.5 157t-366 -157 t-118 -433zM535 1913v21h215q23 -45 56.5 -101.5t71.5 -109.5t69 -92v-25h-121q-47 37 -106.5 95.5t-110 116.5t-74.5 95z" />
<glyph unicode="&#xd3;" horiz-adv-x="1599" d="M125 735q0 225 73.5 393t224 262.5t380.5 94.5q219 0 368.5 -93.5t226.5 -262.5t77 -396t-77 -396t-226.5 -263t-370.5 -94q-227 0 -378 94t-224.5 264t-73.5 397zM319 733q0 -276 117 -435t365 -159q250 0 364.5 159t114.5 435t-114.5 433t-362.5 157t-366 -157 t-118 -433zM692 1606v25q31 39 66.5 92t70.5 109.5t57 101.5h218v-21q-25 -37 -76 -95t-109.5 -116.5t-107.5 -95.5h-119z" />
<glyph unicode="&#xd4;" horiz-adv-x="1599" d="M125 735q0 225 73.5 393t224 262.5t380.5 94.5q219 0 368.5 -93.5t226.5 -262.5t77 -396t-77 -396t-226.5 -263t-370.5 -94q-227 0 -378 94t-224.5 264t-73.5 397zM319 733q0 -276 117 -435t365 -159q250 0 364.5 159t114.5 435t-114.5 433t-362.5 157t-366 -157 t-118 -433zM455 1606v23q39 41 87 94t93 109.5t72 101.5h184q25 -45 71 -101.5t96 -110.5t89 -93v-23h-127q-53 33 -110.5 81t-112.5 103q-55 -55 -110.5 -102t-108.5 -82h-123z" />
<glyph unicode="&#xd5;" horiz-adv-x="1599" d="M125 735q0 225 73.5 393t224 262.5t380.5 94.5q219 0 368.5 -93.5t226.5 -262.5t77 -396t-77 -396t-226.5 -263t-370.5 -94q-227 0 -378 94t-224.5 264t-73.5 397zM319 733q0 -276 117 -435t365 -159q250 0 364.5 159t114.5 435t-114.5 433t-362.5 157t-366 -157 t-118 -433zM426 1606q12 121 70.5 191.5t154.5 70.5q61 0 115.5 -29.5t103.5 -58.5t92 -29q47 0 73 30t40 89h103q-12 -119 -69.5 -190.5t-154.5 -71.5q-57 0 -111.5 28.5t-104.5 58.5t-95 30q-49 0 -73.5 -30t-39.5 -89h-104z" />
<glyph unicode="&#xd6;" horiz-adv-x="1599" d="M125 735q0 225 73.5 393t224 262.5t380.5 94.5q219 0 368.5 -93.5t226.5 -262.5t77 -396t-77 -396t-226.5 -263t-370.5 -94q-227 0 -378 94t-224.5 264t-73.5 397zM319 733q0 -276 117 -435t365 -159q250 0 364.5 159t114.5 435t-114.5 433t-362.5 157t-366 -157 t-118 -433zM514 1760q0 53 28.5 76.5t67.5 23.5t68 -23.5t29 -76.5q0 -51 -29 -77t-68 -26t-67.5 26t-28.5 77zM899 1760q0 53 27.5 76.5t66.5 23.5t68 -23.5t29 -76.5q0 -51 -29 -77t-68 -26t-66.5 26t-27.5 77z" />
<glyph unicode="&#xd7;" d="M131 1069l107 107l346 -351l350 351l102 -105l-348 -348l346 -348l-102 -105l-350 346l-342 -346l-107 105l346 348z" />
<glyph unicode="&#xd8;" horiz-adv-x="1599" d="M125 735q0 225 73.5 393t224 262.5t380.5 94.5q106 0 197.5 -24.5t166.5 -67.5l95 135l124 -84l-104 -146q193 -203 193 -565q0 -227 -77 -396t-226.5 -263t-370.5 -94q-229 0 -379 96l-98 -139l-125 81l106 152q-90 100 -135 243.5t-45 321.5zM319 733q0 -125 24 -227.5 t73 -177.5l653 923q-106 72 -266 72q-248 0 -366 -157t-118 -433zM520 217q53 -37 124 -57.5t157 -20.5q250 0 364.5 159t114.5 435q0 264 -104 414z" />
<glyph unicode="&#xd9;" horiz-adv-x="1497" d="M184 520v942h185v-948q0 -178 95 -276.5t288 -98.5q199 0 287.5 105.5t88.5 271.5v946h183v-946q0 -152 -61.5 -273.5t-187.5 -192t-321 -70.5q-272 0 -414.5 148t-142.5 392zM483 1913v21h215q23 -45 56.5 -101.5t71.5 -109.5t69 -92v-25h-121q-47 37 -106.5 95.5 t-110 116.5t-74.5 95z" />
<glyph unicode="&#xda;" horiz-adv-x="1497" d="M184 520v942h185v-948q0 -178 95 -276.5t288 -98.5q199 0 287.5 105.5t88.5 271.5v946h183v-946q0 -152 -61.5 -273.5t-187.5 -192t-321 -70.5q-272 0 -414.5 148t-142.5 392zM641 1606v25q31 39 66.5 92t70.5 109.5t57 101.5h218v-21q-25 -37 -76 -95t-109.5 -116.5 t-107.5 -95.5h-119z" />
<glyph unicode="&#xdb;" horiz-adv-x="1497" d="M184 520v942h185v-948q0 -178 95 -276.5t288 -98.5q199 0 287.5 105.5t88.5 271.5v946h183v-946q0 -152 -61.5 -273.5t-187.5 -192t-321 -70.5q-272 0 -414.5 148t-142.5 392zM404 1606v23q39 41 87 94t93 109.5t72 101.5h184q25 -45 71 -101.5t96 -110.5t89 -93v-23 h-127q-53 33 -110.5 81t-112.5 103q-55 -55 -110.5 -102t-108.5 -82h-123z" />
<glyph unicode="&#xdc;" horiz-adv-x="1497" d="M184 520v942h185v-948q0 -178 95 -276.5t288 -98.5q199 0 287.5 105.5t88.5 271.5v946h183v-946q0 -152 -61.5 -273.5t-187.5 -192t-321 -70.5q-272 0 -414.5 148t-142.5 392zM463 1760q0 53 28.5 76.5t67.5 23.5t68 -23.5t29 -76.5q0 -51 -29 -77t-68 -26t-67.5 26 t-28.5 77zM848 1760q0 53 27.5 76.5t66.5 23.5t68 -23.5t29 -76.5q0 -51 -29 -77t-68 -26t-66.5 26t-27.5 77z" />
<glyph unicode="&#xdd;" horiz-adv-x="1159" d="M0 1462h201l379 -719l381 719h198l-487 -895v-567h-185v559zM471 1606v25q31 39 66.5 92t70.5 109.5t57 101.5h218v-21q-25 -37 -76 -95t-109.5 -116.5t-107.5 -95.5h-119z" />
<glyph unicode="&#xde;" horiz-adv-x="1239" d="M199 0v1462h184v-254h197q297 0 426 -112.5t129 -313.5q0 -123 -53.5 -228t-181.5 -171t-351 -66h-166v-317h-184zM383 473h147q215 0 314.5 68.5t99.5 230.5q0 141 -89 210t-290 69h-182v-578z" />
<glyph unicode="&#xdf;" horiz-adv-x="1292" d="M174 0v1196q0 137 59.5 218t162 117t231.5 36q199 0 320.5 -75.5t121.5 -227.5q0 -70 -28.5 -122t-71.5 -92t-86 -73t-72 -64.5t-29 -68.5q0 -27 13.5 -49.5t52.5 -52t115 -80.5q111 -74 174 -151t63 -198q0 -174 -105.5 -253.5t-275.5 -79.5q-96 0 -170 18t-127 51v162 q53 -33 131 -59.5t160 -26.5q113 0 162 47t49 129q0 74 -42 125t-151 121q-129 84 -176 144.5t-47 142.5q0 63 28 108t70 79t83.5 66.5t69.5 71.5t28 94q0 86 -73 125t-187 39q-72 0 -134.5 -19.5t-100.5 -66.5t-38 -135v-1196h-180z" />
<glyph unicode="&#xe0;" horiz-adv-x="1148" d="M94 305q0 164 129 253t398 97l186 7v65q0 137 -59.5 190.5t-167.5 53.5q-86 0 -164 -25.5t-146 -58.5l-55 135q72 39 170.5 66.5t204.5 27.5q201 0 297 -88t96 -280v-748h-131l-35 156h-8q-72 -90 -150.5 -133t-218.5 -43q-150 0 -248 78.5t-98 246.5zM281 303 q0 -92 56 -135t144 -43q139 0 231.5 77t92.5 236v99l-162 -7q-205 -8 -283.5 -65t-78.5 -162zM309 1548v21h215q23 -45 56.5 -101.5t71.5 -109.5t69 -92v-25h-121q-47 37 -106.5 95.5t-110 116.5t-74.5 95z" />
<glyph unicode="&#xe1;" horiz-adv-x="1148" d="M94 305q0 164 129 253t398 97l186 7v65q0 137 -59.5 190.5t-167.5 53.5q-86 0 -164 -25.5t-146 -58.5l-55 135q72 39 170.5 66.5t204.5 27.5q201 0 297 -88t96 -280v-748h-131l-35 156h-8q-72 -90 -150.5 -133t-218.5 -43q-150 0 -248 78.5t-98 246.5zM281 303 q0 -92 56 -135t144 -43q139 0 231.5 77t92.5 236v99l-162 -7q-205 -8 -283.5 -65t-78.5 -162zM467 1241v25q31 39 66.5 92t70.5 109.5t57 101.5h218v-21q-25 -37 -76 -95t-109.5 -116.5t-107.5 -95.5h-119z" />
<glyph unicode="&#xe2;" horiz-adv-x="1148" d="M94 305q0 164 129 253t398 97l186 7v65q0 137 -59.5 190.5t-167.5 53.5q-86 0 -164 -25.5t-146 -58.5l-55 135q72 39 170.5 66.5t204.5 27.5q201 0 297 -88t96 -280v-748h-131l-35 156h-8q-72 -90 -150.5 -133t-218.5 -43q-150 0 -248 78.5t-98 246.5zM229 1241v23 q39 41 87 94t93 109.5t72 101.5h184q25 -45 71 -101.5t96 -110.5t89 -93v-23h-127q-53 33 -110.5 81t-112.5 103q-55 -55 -110.5 -102t-108.5 -82h-123zM281 303q0 -92 56 -135t144 -43q139 0 231.5 77t92.5 236v99l-162 -7q-205 -8 -283.5 -65t-78.5 -162z" />
<glyph unicode="&#xe3;" horiz-adv-x="1148" d="M94 305q0 164 129 253t398 97l186 7v65q0 137 -59.5 190.5t-167.5 53.5q-86 0 -164 -25.5t-146 -58.5l-55 135q72 39 170.5 66.5t204.5 27.5q201 0 297 -88t96 -280v-748h-131l-35 156h-8q-72 -90 -150.5 -133t-218.5 -43q-150 0 -248 78.5t-98 246.5zM201 1241 q12 121 70.5 191.5t154.5 70.5q61 0 115.5 -29.5t103.5 -58.5t92 -29q47 0 73 30t40 89h103q-12 -119 -69.5 -190.5t-154.5 -71.5q-57 0 -111.5 28.5t-104.5 58.5t-95 30q-49 0 -73.5 -30t-39.5 -89h-104zM281 303q0 -92 56 -135t144 -43q139 0 231.5 77t92.5 236v99 l-162 -7q-205 -8 -283.5 -65t-78.5 -162z" />
<glyph unicode="&#xe4;" horiz-adv-x="1148" d="M94 305q0 164 129 253t398 97l186 7v65q0 137 -59.5 190.5t-167.5 53.5q-86 0 -164 -25.5t-146 -58.5l-55 135q72 39 170.5 66.5t204.5 27.5q201 0 297 -88t96 -280v-748h-131l-35 156h-8q-72 -90 -150.5 -133t-218.5 -43q-150 0 -248 78.5t-98 246.5zM281 303 q0 -92 56 -135t144 -43q139 0 231.5 77t92.5 236v99l-162 -7q-205 -8 -283.5 -65t-78.5 -162zM289 1395q0 53 28.5 76.5t67.5 23.5t68 -23.5t29 -76.5q0 -51 -29 -77t-68 -26t-67.5 26t-28.5 77zM674 1395q0 53 27.5 76.5t66.5 23.5t68 -23.5t29 -76.5q0 -51 -29 -77 t-68 -26t-66.5 26t-27.5 77z" />
<glyph unicode="&#xe5;" horiz-adv-x="1148" d="M94 305q0 164 129 253t398 97l186 7v65q0 137 -59.5 190.5t-167.5 53.5q-86 0 -164 -25.5t-146 -58.5l-55 135q72 39 170.5 66.5t204.5 27.5q201 0 297 -88t96 -280v-748h-131l-35 156h-8q-72 -90 -150.5 -133t-218.5 -43q-150 0 -248 78.5t-98 246.5zM281 303 q0 -92 56 -135t144 -43q139 0 231.5 77t92.5 236v99l-162 -7q-205 -8 -283.5 -65t-78.5 -162zM350 1458q0 102 61.5 158.5t161.5 56.5q96 0 161.5 -56t65.5 -157q0 -104 -64.5 -161.5t-162.5 -57.5q-100 0 -161.5 57.5t-61.5 159.5zM458 1458q0 -53 30 -84t85 -31 q51 0 83 31t32 84t-33 84t-82 31t-82 -31t-33 -84z" />
<glyph unicode="&#xe6;" horiz-adv-x="1769" d="M94 305q0 164 123 253t377 97l184 7v69q0 133 -62.5 186.5t-166.5 53.5q-82 0 -161 -24.5t-146 -59.5l-56 135q72 41 174.5 67.5t202.5 26.5q127 0 210 -42t126 -134q53 84 139 131t197 47q133 0 229.5 -61.5t148.5 -172t52 -257.5v-111h-702q4 -197 84.5 -290t232.5 -93 q102 0 180 19.5t156 56.5v-158q-82 -37 -161 -54t-181 -17q-289 0 -416 231q-70 -106 -164 -168.5t-252 -62.5q-150 0 -249 78.5t-99 246.5zM281 303q0 -92 52 -135t138 -43q129 0 216 77t87 236v99l-153 -7q-193 -8 -266.5 -65t-73.5 -162zM967 657h508q0 141 -58.5 227.5 t-183.5 86.5q-119 0 -187.5 -81t-78.5 -233z" />
<glyph unicode="&#xe7;" horiz-adv-x="983" d="M113 543q0 203 67.5 329.5t183 186t263.5 59.5q84 0 161.5 -17.5t126.5 -41.5l-55 -150q-49 18 -114.5 35t-122.5 17q-324 0 -324 -416q0 -199 79 -304.5t234 -105.5q90 0 159 18.5t126 45.5v-160q-55 -29 -122 -44t-161 -15q-145 0 -258.5 59t-178 184t-64.5 320z M377 -369q18 -4 49 -7t59 -3q74 0 113 19.5t39 70.5q0 53 -54.5 78t-132.5 35l88 176h119l-53 -109q74 -16 126 -57t52 -119q0 -98 -75.5 -152.5t-227.5 -54.5q-66 0 -102 11v112z" />
<glyph unicode="&#xe8;" horiz-adv-x="1155" d="M113 541q0 180 60 309t170 198.5t255 69.5q141 0 242.5 -61.5t156 -173t54.5 -260.5v-109h-752q4 -186 95 -283.5t255 -97.5q104 0 185 19.5t167 56.5v-158q-84 -37 -165.5 -54t-194.5 -17q-156 0 -275.5 63t-186 189t-66.5 309zM303 657h559q-2 139 -65.5 226.5 t-200.5 87.5q-129 0 -204 -83t-89 -231zM318 1548v21h215q23 -45 56.5 -101.5t71.5 -109.5t69 -92v-25h-121q-47 37 -106.5 95.5t-110 116.5t-74.5 95z" />
<glyph unicode="&#xe9;" horiz-adv-x="1155" d="M113 541q0 180 60 309t170 198.5t255 69.5q141 0 242.5 -61.5t156 -173t54.5 -260.5v-109h-752q4 -186 95 -283.5t255 -97.5q104 0 185 19.5t167 56.5v-158q-84 -37 -165.5 -54t-194.5 -17q-156 0 -275.5 63t-186 189t-66.5 309zM303 657h559q-2 139 -65.5 226.5 t-200.5 87.5q-129 0 -204 -83t-89 -231zM475 1241v25q31 39 66.5 92t70.5 109.5t57 101.5h218v-21q-25 -37 -76 -95t-109.5 -116.5t-107.5 -95.5h-119z" />
<glyph unicode="&#xea;" horiz-adv-x="1155" d="M113 541q0 180 60 309t170 198.5t255 69.5q141 0 242.5 -61.5t156 -173t54.5 -260.5v-109h-752q4 -186 95 -283.5t255 -97.5q104 0 185 19.5t167 56.5v-158q-84 -37 -165.5 -54t-194.5 -17q-156 0 -275.5 63t-186 189t-66.5 309zM238 1241v23q39 41 87 94t93 109.5 t72 101.5h184q25 -45 71 -101.5t96 -110.5t89 -93v-23h-127q-53 33 -110.5 81t-112.5 103q-55 -55 -110.5 -102t-108.5 -82h-123zM303 657h559q-2 139 -65.5 226.5t-200.5 87.5q-129 0 -204 -83t-89 -231z" />
<glyph unicode="&#xeb;" horiz-adv-x="1155" d="M113 541q0 180 60 309t170 198.5t255 69.5q141 0 242.5 -61.5t156 -173t54.5 -260.5v-109h-752q4 -186 95 -283.5t255 -97.5q104 0 185 19.5t167 56.5v-158q-84 -37 -165.5 -54t-194.5 -17q-156 0 -275.5 63t-186 189t-66.5 309zM297 1395q0 53 28.5 76.5t67.5 23.5 t68 -23.5t29 -76.5q0 -51 -29 -77t-68 -26t-67.5 26t-28.5 77zM303 657h559q-2 139 -65.5 226.5t-200.5 87.5q-129 0 -204 -83t-89 -231zM682 1395q0 53 27.5 76.5t66.5 23.5t68 -23.5t29 -76.5q0 -51 -29 -77t-68 -26t-66.5 26t-27.5 77z" />
<glyph unicode="&#xec;" horiz-adv-x="528" d="M-2 1548v21h215q23 -45 56.5 -101.5t71.5 -109.5t69 -92v-25h-121q-47 37 -106.5 95.5t-110 116.5t-74.5 95zM174 0v1098h180v-1098h-180z" />
<glyph unicode="&#xed;" horiz-adv-x="528" d="M156 1241v25q31 39 66.5 92t70.5 109.5t57 101.5h218v-21q-25 -37 -76 -95t-109.5 -116.5t-107.5 -95.5h-119zM174 0v1098h180v-1098h-180z" />
<glyph unicode="&#xee;" horiz-adv-x="528" d="M-82 1241v23q39 41 87 94t93 109.5t72 101.5h184q25 -45 71 -101.5t96 -110.5t89 -93v-23h-127q-53 33 -110.5 81t-112.5 103q-55 -55 -110.5 -102t-108.5 -82h-123zM174 0v1098h180v-1098h-180z" />
<glyph unicode="&#xef;" horiz-adv-x="528" d="M-23 1395q0 53 28.5 76.5t67.5 23.5t68 -23.5t29 -76.5q0 -51 -29 -77t-68 -26t-67.5 26t-28.5 77zM174 0v1098h180v-1098h-180zM362 1395q0 53 27.5 76.5t66.5 23.5t68 -23.5t29 -76.5q0 -51 -29 -77t-68 -26t-66.5 26t-27.5 77z" />
<glyph unicode="&#xf0;" horiz-adv-x="1239" d="M113 477q0 229 130 360.5t351 131.5q109 0 189.5 -29t129.5 -90l9 4q-33 117 -100.5 215t-153.5 176l-267 -153l-77 112l229 131q-43 29 -90 56.5t-94 52.5l73 123q66 -31 132.5 -68t125.5 -80l236 137l78 -110l-203 -117q139 -131 228 -323.5t89 -442.5 q0 -291 -137 -437t-375 -146q-147 0 -260.5 60t-178 172t-64.5 265zM295 471q0 -150 78 -247t248 -97t247.5 99.5t77.5 287.5q0 127 -79.5 218t-245.5 91q-172 0 -249 -91t-77 -261z" />
<glyph unicode="&#xf1;" horiz-adv-x="1265" d="M174 0v1098h145l27 -150h10q53 86 147.5 128t198.5 42q197 0 297.5 -95t100.5 -308v-715h-178v702q0 264 -246 265q-182 0 -252 -102.5t-70 -295.5v-569h-180zM258 1241q12 121 70.5 191.5t154.5 70.5q61 0 115.5 -29.5t103.5 -58.5t92 -29q47 0 73 30t40 89h103 q-12 -119 -69.5 -190.5t-154.5 -71.5q-57 0 -111.5 28.5t-104.5 58.5t-95 30q-49 0 -73.5 -30t-39.5 -89h-104z" />
<glyph unicode="&#xf2;" horiz-adv-x="1239" d="M113 551q0 272 137 419.5t373 147.5q150 0 263 -66.5t177.5 -192.5t64.5 -308q0 -272 -138 -421.5t-374 -149.5q-145 0 -258.5 66.5t-179 194.5t-65.5 310zM299 551q0 -195 77 -308.5t245 -113.5q166 0 243.5 113.5t77.5 308.5t-78 305.5t-246 110.5t-243.5 -110.5 t-75.5 -305.5zM354 1548v21h215q23 -45 56.5 -101.5t71.5 -109.5t69 -92v-25h-121q-47 37 -106.5 95.5t-110 116.5t-74.5 95z" />
<glyph unicode="&#xf3;" horiz-adv-x="1239" d="M113 551q0 272 137 419.5t373 147.5q150 0 263 -66.5t177.5 -192.5t64.5 -308q0 -272 -138 -421.5t-374 -149.5q-145 0 -258.5 66.5t-179 194.5t-65.5 310zM299 551q0 -195 77 -308.5t245 -113.5q166 0 243.5 113.5t77.5 308.5t-78 305.5t-246 110.5t-243.5 -110.5 t-75.5 -305.5zM512 1241v25q31 39 66.5 92t70.5 109.5t57 101.5h218v-21q-25 -37 -76 -95t-109.5 -116.5t-107.5 -95.5h-119z" />
<glyph unicode="&#xf4;" horiz-adv-x="1239" d="M113 551q0 272 137 419.5t373 147.5q150 0 263 -66.5t177.5 -192.5t64.5 -308q0 -272 -138 -421.5t-374 -149.5q-145 0 -258.5 66.5t-179 194.5t-65.5 310zM275 1241v23q39 41 87 94t93 109.5t72 101.5h184q25 -45 71 -101.5t96 -110.5t89 -93v-23h-127q-53 33 -110.5 81 t-112.5 103q-55 -55 -110.5 -102t-108.5 -82h-123zM299 551q0 -195 77 -308.5t245 -113.5q166 0 243.5 113.5t77.5 308.5t-78 305.5t-246 110.5t-243.5 -110.5t-75.5 -305.5z" />
<glyph unicode="&#xf5;" horiz-adv-x="1239" d="M113 551q0 272 137 419.5t373 147.5q150 0 263 -66.5t177.5 -192.5t64.5 -308q0 -272 -138 -421.5t-374 -149.5q-145 0 -258.5 66.5t-179 194.5t-65.5 310zM246 1241q12 121 70.5 191.5t154.5 70.5q61 0 115.5 -29.5t103.5 -58.5t92 -29q47 0 73 30t40 89h103 q-12 -119 -69.5 -190.5t-154.5 -71.5q-57 0 -111.5 28.5t-104.5 58.5t-95 30q-49 0 -73.5 -30t-39.5 -89h-104zM299 551q0 -195 77 -308.5t245 -113.5q166 0 243.5 113.5t77.5 308.5t-78 305.5t-246 110.5t-243.5 -110.5t-75.5 -305.5z" />
<glyph unicode="&#xf6;" horiz-adv-x="1239" d="M113 551q0 272 137 419.5t373 147.5q150 0 263 -66.5t177.5 -192.5t64.5 -308q0 -272 -138 -421.5t-374 -149.5q-145 0 -258.5 66.5t-179 194.5t-65.5 310zM299 551q0 -195 77 -308.5t245 -113.5q166 0 243.5 113.5t77.5 308.5t-78 305.5t-246 110.5t-243.5 -110.5 t-75.5 -305.5zM334 1395q0 53 28.5 76.5t67.5 23.5t68 -23.5t29 -76.5q0 -51 -29 -77t-68 -26t-67.5 26t-28.5 77zM719 1395q0 53 27.5 76.5t66.5 23.5t68 -23.5t29 -76.5q0 -51 -29 -77t-68 -26t-66.5 26t-27.5 77z" />
<glyph unicode="&#xf7;" d="M102 649v146h965v-146h-965zM469 373q0 70 34 96.5t81 26.5t79.5 -27t32.5 -96q0 -66 -32.5 -95.5t-79.5 -29.5t-81 29.5t-34 95.5zM469 1071q0 70 34 96.5t81 26.5t79.5 -26.5t32.5 -96.5q0 -66 -32.5 -95.5t-79.5 -29.5t-81 30t-34 95z" />
<glyph unicode="&#xf8;" horiz-adv-x="1239" d="M113 551q0 272 137 419.5t373 147.5q150 0 268 -74l80 115l121 -78l-93 -129q59 -72 94 -173t35 -228q0 -272 -138 -421.5t-374 -149.5q-150 0 -264 67l-82 -115l-118 80l92 127q-63 74 -97 177.5t-34 234.5zM299 551q0 -78 11.5 -144.5t37.5 -117.5l451 626 q-74 51 -181 52q-168 0 -243.5 -110.5t-75.5 -305.5zM444 176q70 -47 177 -47q166 0 243.5 113.5t77.5 308.5q0 152 -47 252z" />
<glyph unicode="&#xf9;" horiz-adv-x="1265" d="M162 379v719h182v-707q0 -262 244 -262q182 0 252.5 102.5t70.5 294.5v572h181v-1098h-148l-26 145h-9q-53 -86 -147 -125.5t-201 -39.5q-199 0 -299 95t-100 304zM367 1548v21h215q23 -45 56.5 -101.5t71.5 -109.5t69 -92v-25h-121q-47 37 -106.5 95.5t-110 116.5 t-74.5 95z" />
<glyph unicode="&#xfa;" horiz-adv-x="1265" d="M162 379v719h182v-707q0 -262 244 -262q182 0 252.5 102.5t70.5 294.5v572h181v-1098h-148l-26 145h-9q-53 -86 -147 -125.5t-201 -39.5q-199 0 -299 95t-100 304zM524 1241v25q31 39 66.5 92t70.5 109.5t57 101.5h218v-21q-25 -37 -76 -95t-109.5 -116.5t-107.5 -95.5 h-119z" />
<glyph unicode="&#xfb;" horiz-adv-x="1265" d="M162 379v719h182v-707q0 -262 244 -262q182 0 252.5 102.5t70.5 294.5v572h181v-1098h-148l-26 145h-9q-53 -86 -147 -125.5t-201 -39.5q-199 0 -299 95t-100 304zM287 1241v23q39 41 87 94t93 109.5t72 101.5h184q25 -45 71 -101.5t96 -110.5t89 -93v-23h-127 q-53 33 -110.5 81t-112.5 103q-55 -55 -110.5 -102t-108.5 -82h-123z" />
<glyph unicode="&#xfc;" horiz-adv-x="1265" d="M162 379v719h182v-707q0 -262 244 -262q182 0 252.5 102.5t70.5 294.5v572h181v-1098h-148l-26 145h-9q-53 -86 -147 -125.5t-201 -39.5q-199 0 -299 95t-100 304zM346 1395q0 53 28.5 76.5t67.5 23.5t68 -23.5t29 -76.5q0 -51 -29 -77t-68 -26t-67.5 26t-28.5 77z M731 1395q0 53 27.5 76.5t66.5 23.5t68 -23.5t29 -76.5q0 -51 -29 -77t-68 -26t-66.5 26t-27.5 77z" />
<glyph unicode="&#xfd;" horiz-adv-x="1044" d="M2 1098h193l237 -625q31 -82 55.5 -156.5t36.5 -142.5h8q12 51 39 134t56 167l223 623h194l-473 -1250q-57 -156 -148 -248t-251 -92q-49 0 -86 5.5t-63 11.5v143q23 -4 54.5 -8t65.5 -4q94 0 152.5 53t91.5 141l57 146zM414 1241v25q31 39 66.5 92t70.5 109.5t57 101.5 h218v-21q-25 -37 -76 -95t-109.5 -116.5t-107.5 -95.5h-119z" />
<glyph unicode="&#xfe;" horiz-adv-x="1259" d="M174 -492v2048h180v-458q0 -29 -2 -75t-4 -73h8q49 70 129 119t211 49q203 0 327 -143t124 -424t-124 -426t-327 -145q-129 0 -211 47t-131 112h-12q2 -14 5 -47t5 -67.5t2 -57.5v-459h-180zM354 551q0 -203 66.5 -312.5t247.5 -109.5q152 0 222.5 109.5t70.5 314.5 q0 207 -72 310.5t-223 103.5q-168 0 -238 -94.5t-74 -282.5v-39z" />
<glyph unicode="&#xff;" horiz-adv-x="1044" d="M2 1098h193l237 -625q31 -82 55.5 -156.5t36.5 -142.5h8q12 51 39 134t56 167l223 623h194l-473 -1250q-57 -156 -148 -248t-251 -92q-49 0 -86 5.5t-63 11.5v143q23 -4 54.5 -8t65.5 -4q94 0 152.5 53t91.5 141l57 146zM235 1395q0 53 28.5 76.5t67.5 23.5t68 -23.5 t29 -76.5q0 -51 -29 -77t-68 -26t-67.5 26t-28.5 77zM620 1395q0 53 27.5 76.5t66.5 23.5t68 -23.5t29 -76.5q0 -51 -29 -77t-68 -26t-66.5 26t-27.5 77z" />
<glyph unicode="&#x152;" horiz-adv-x="1900" d="M125 735q0 227 72.5 395t221.5 261.5t372 93.5q102 0 196 -23h791v-162h-588v-456h549v-160h-549v-522h588v-162h-779q-45 -8 -95 -14t-103 -6q-227 0 -378 94t-224.5 264t-73.5 397zM317 733q0 -276 119 -435t369 -159q117 0 203 35v1116q-84 33 -201 33 q-252 0 -371 -156.5t-119 -433.5z" />
<glyph unicode="&#x153;" horiz-adv-x="1937" d="M111 551q0 270 134 417.5t367 147.5q129 0 231.5 -57.5t164.5 -167.5q59 109 156 167t222 58q207 0 326 -134t119 -359v-109h-729q4 -197 89 -289t243 -92q109 0 187.5 19.5t160.5 56.5v-158q-82 -37 -162 -54t-188 -17q-139 0 -246 57t-172 170q-63 -113 -168 -170 t-240 -57q-143 0 -254.5 66.5t-176 194.5t-64.5 310zM299 551q0 -207 73.5 -314.5t235.5 -107.5q160 0 233.5 104.5t73.5 309.5q0 213 -74.5 318.5t-236.5 105.5t-233.5 -104.5t-71.5 -311.5zM1106 657h534q0 141 -61.5 226.5t-194.5 85.5q-123 0 -194.5 -80t-83.5 -232z " />
<glyph unicode="&#x178;" horiz-adv-x="1159" d="M0 1462h201l379 -719l381 719h198l-487 -895v-567h-185v559zM293 1760q0 53 28.5 76.5t67.5 23.5t68 -23.5t29 -76.5q0 -51 -29 -77t-68 -26t-67.5 26t-28.5 77zM678 1760q0 53 27.5 76.5t66.5 23.5t68 -23.5t29 -76.5q0 -51 -29 -77t-68 -26t-66.5 26t-27.5 77z" />
<glyph unicode="&#x2c6;" horiz-adv-x="856" d="M82 1241v23q39 41 87 94t93 109.5t72 101.5h184q25 -45 71 -101.5t96 -110.5t89 -93v-23h-127q-53 33 -110.5 81t-112.5 103q-55 -55 -110.5 -102t-108.5 -82h-123z" />
<glyph unicode="&#x2dc;" horiz-adv-x="915" d="M82 1241q12 121 70.5 191.5t154.5 70.5q61 0 115.5 -29.5t103.5 -58.5t92 -29q47 0 73 30t40 89h103q-12 -119 -69.5 -190.5t-154.5 -71.5q-57 0 -111.5 28.5t-104.5 58.5t-95 30q-49 0 -73.5 -30t-39.5 -89h-104z" />
<glyph unicode="&#x2000;" horiz-adv-x="967" />
<glyph unicode="&#x2001;" horiz-adv-x="1934" />
<glyph unicode="&#x2002;" horiz-adv-x="967" />
<glyph unicode="&#x2003;" horiz-adv-x="1934" />
<glyph unicode="&#x2004;" horiz-adv-x="644" />
<glyph unicode="&#x2005;" horiz-adv-x="483" />
<glyph unicode="&#x2006;" horiz-adv-x="322" />
<glyph unicode="&#x2007;" horiz-adv-x="322" />
<glyph unicode="&#x2008;" horiz-adv-x="241" />
<glyph unicode="&#x2009;" horiz-adv-x="386" />
<glyph unicode="&#x200a;" horiz-adv-x="107" />
<glyph unicode="&#x2010;" horiz-adv-x="659" d="M82 469v160h496v-160h-496z" />
<glyph unicode="&#x2011;" horiz-adv-x="659" d="M82 469v160h496v-160h-496z" />
<glyph unicode="&#x2012;" horiz-adv-x="659" d="M82 469v160h496v-160h-496z" />
<glyph unicode="&#x2013;" horiz-adv-x="1024" d="M82 469v160h860v-160h-860z" />
<glyph unicode="&#x2014;" horiz-adv-x="2048" d="M82 469v160h1884v-160h-1884z" />
<glyph unicode="&#x2018;" horiz-adv-x="358" d="M25 983q29 109 78 240t98 239h133q-18 -78 -39 -167t-37 -176t-27 -158h-194z" />
<glyph unicode="&#x2019;" horiz-adv-x="358" d="M25 961q20 78 39.5 167t36 176t26.5 158h192l15 -22q-27 -106 -77 -238.5t-99 -240.5h-133z" />
<glyph unicode="&#x201a;" horiz-adv-x="512" d="M64 -264q20 78 39.5 167t36 176t26.5 158h192l15 -22q-27 -106 -77 -238.5t-99 -240.5h-133z" />
<glyph unicode="&#x201c;" horiz-adv-x="735" d="M25 983q29 109 77 239t99 240h131q-29 -119 -57.5 -257t-45.5 -244h-192zM399 983q29 109 78 239t101 240h133q-29 -119 -57.5 -257t-45.5 -244h-194z" />
<glyph unicode="&#x201d;" horiz-adv-x="735" d="M25 961q20 78 38.5 167t35 176t26.5 158h192l15 -22q-27 -109 -77 -240t-99 -239h-131zM399 961q20 78 40 167t37.5 176t27.5 158h192l15 -22q-27 -109 -77 -240t-99 -239h-136z" />
<glyph unicode="&#x201e;" horiz-adv-x="851" d="M64 -264q20 78 38.5 167t35 176t26.5 158h192l15 -22q-27 -109 -77 -240t-99 -239h-131zM438 -264q20 78 40 167t37.5 176t27.5 158h192l15 -22q-27 -109 -77 -240t-99 -239h-136z" />
<glyph unicode="&#x2022;" horiz-adv-x="770" d="M158 748q0 139 65.5 196t161.5 57t161.5 -57t65.5 -196q0 -135 -65.5 -194.5t-161.5 -59.5t-161.5 59.5t-65.5 194.5z" />
<glyph unicode="&#x2026;" horiz-adv-x="1619" d="M147 111q0 76 37 106.5t88 30.5q53 0 91 -31t38 -106q0 -74 -37.5 -107t-91.5 -33q-51 0 -88 33t-37 107zM684 111q0 76 37 106.5t88 30.5q53 0 91 -31t38 -106q0 -74 -37.5 -107t-91.5 -33q-51 0 -88 33t-37 107zM1218 111q0 76 37 106.5t88 30.5q53 0 91 -31t38 -106 q0 -74 -37.5 -107t-91.5 -33q-51 0 -88 33t-37 107z" />
<glyph unicode="&#x202f;" horiz-adv-x="386" />
<glyph unicode="&#x2039;" horiz-adv-x="634" d="M82 526v27l344 412l129 -74l-287 -350l287 -351l-129 -75z" />
<glyph unicode="&#x203a;" horiz-adv-x="634" d="M80 190l287 351l-287 350l127 74l346 -412v-27l-346 -411z" />
<glyph unicode="&#x205f;" horiz-adv-x="483" />
<glyph unicode="&#x20ac;" d="M47 504v133h148q-2 25 -2 41v43q0 23 1 44t1 34h-148v133h162q39 252 182 400.5t387 148.5q102 0 192.5 -22.5t174.5 -72.5l-76 -147q-57 31 -134 57.5t-157 26.5q-311 0 -387 -391h500v-133h-514q-2 -20 -2 -39v-39v-40t2 -44h452v-133h-436q35 -174 134.5 -269.5 t267.5 -95.5q80 0 160.5 19.5t144.5 46.5v-160q-63 -27 -140 -46t-176 -19q-248 0 -388 141t-185 383h-164z" />
<glyph unicode="&#x2122;" horiz-adv-x="1583" d="M35 1352v110h545v-110h-209v-611h-129v611h-207zM666 741v721h192l193 -555l198 555h187v-721h-131v418q0 16 2 64.5t4 72.5h-8l-207 -555h-109l-196 555h-9q2 -33 4 -73.5t2 -53.5v-428h-122z" />
<glyph unicode="&#x25fc;" horiz-adv-x="1095" d="M0 0v1096h1096v-1096h-1096z" />
</font>
</defs>
</svg>
